  0
SECTION
  2
HEADER
  9
$ACADVER
  1
AC1015
  9
$ACADMAINTVER
 70
     6
  9
$DWGCODEPAGE
  3
ANSI_1252
  9
$INSBASE
 10
0.0
 20
0.0
 30
0.0
  9
$EXTMIN
 10
-210.0000000000001
 20
0.0
 30
0.0
  9
$EXTMAX
 10
0.0
 20
297.0000000000001
 30
0.0
  9
$LIMMIN
 10
0.0
 20
0.0
  9
$LIMMAX
 10
12.0
 20
9.0
  9
$ORTHOMODE
 70
     0
  9
$REGENMODE
 70
     1
  9
$FILLMODE
 70
     1
  9
$QTEXTMODE
 70
     0
  9
$MIRRTEXT
 70
     1
  9
$LTSCALE
 40
1.0
  9
$ATTMODE
 70
     1
  9
$TEXTSIZE
 40
0.2
  9
$TRACEWID
 40
0.05
  9
$TEXTSTYLE
  7
Standard
  9
$CLAYER
  8
0
  9
$CELTYPE
  6
ByLayer
  9
$CECOLOR
 62
   256
  9
$CELTSCALE
 40
1.0
  9
$DISPSILH
 70
     0
  9
$DIMSCALE
 40
1.0
  9
$DIMASZ
 40
0.18
  9
$DIMEXO
 40
0.0625
  9
$DIMDLI
 40
0.38
  9
$DIMRND
 40
0.0
  9
$DIMDLE
 40
0.0
  9
$DIMEXE
 40
0.18
  9
$DIMTP
 40
0.0
  9
$DIMTM
 40
0.0
  9
$DIMTXT
 40
0.18
  9
$DIMCEN
 40
0.09
  9
$DIMTSZ
 40
0.0
  9
$DIMTOL
 70
     0
  9
$DIMLIM
 70
     0
  9
$DIMTIH
 70
     1
  9
$DIMTOH
 70
     1
  9
$DIMSE1
 70
     0
  9
$DIMSE2
 70
     0
  9
$DIMTAD
 70
     0
  9
$DIMZIN
 70
     0
  9
$DIMBLK
  1

  9
$DIMASO
 70
     1
  9
$DIMSHO
 70
     1
  9
$DIMPOST
  1

  9
$DIMAPOST
  1

  9
$DIMALT
 70
     0
  9
$DIMALTD
 70
     2
  9
$DIMALTF
 40
25.4
  9
$DIMLFAC
 40
1.0
  9
$DIMTOFL
 70
     0
  9
$DIMTVP
 40
0.0
  9
$DIMTIX
 70
     0
  9
$DIMSOXD
 70
     0
  9
$DIMSAH
 70
     0
  9
$DIMBLK1
  1

  9
$DIMBLK2
  1

  9
$DIMSTYLE
  2
Standard
  9
$DIMCLRD
 70
     0
  9
$DIMCLRE
 70
     0
  9
$DIMCLRT
 70
     0
  9
$DIMTFAC
 40
1.0
  9
$DIMGAP
 40
0.09
  9
$DIMJUST
 70
     0
  9
$DIMSD1
 70
     0
  9
$DIMSD2
 70
     0
  9
$DIMTOLJ
 70
     1
  9
$DIMTZIN
 70
     0
  9
$DIMALTZ
 70
     0
  9
$DIMALTTZ
 70
     0
  9
$DIMUPT
 70
     0
  9
$DIMDEC
 70
     4
  9
$DIMTDEC
 70
     4
  9
$DIMALTU
 70
     2
  9
$DIMALTTD
 70
     2
  9
$DIMTXSTY
  7
Standard
  9
$DIMAUNIT
 70
     0
  9
$DIMADEC
 70
     0
  9
$DIMALTRND
 40
0.0
  9
$DIMAZIN
 70
     0
  9
$DIMDSEP
 70
    46
  9
$DIMATFIT
 70
     3
  9
$DIMFRAC
 70
     0
  9
$DIMLDRBLK
  1

  9
$DIMLUNIT
 70
     2
  9
$DIMLWD
 70
    -2
  9
$DIMLWE
 70
    -2
  9
$DIMTMOVE
 70
     0
  9
$LUNITS
 70
     2
  9
$LUPREC
 70
     4
  9
$SKETCHINC
 40
0.1
  9
$FILLETRAD
 40
0.5
  9
$AUNITS
 70
     0
  9
$AUPREC
 70
     0
  9
$MENU
  1
.
  9
$ELEVATION
 40
0.0
  9
$PELEVATION
 40
0.0
  9
$THICKNESS
 40
0.0
  9
$LIMCHECK
 70
     0
  9
$CHAMFERA
 40
0.5
  9
$CHAMFERB
 40
0.5
  9
$CHAMFERC
 40
1.0
  9
$CHAMFERD
 40
0.0
  9
$SKPOLY
 70
     0
  9
$TDCREATE
 40
2456997.601089051
  9
$TDUCREATE
 40
2456997.559422384
  9
$TDUPDATE
 40
2456997.60108941
  9
$TDUUPDATE
 40
2456997.559422743
  9
$TDINDWG
 40
0.0000000116
  9
$TDUSRTIMER
 40
0.0000000116
  9
$USRTIMER
 70
     1
  9
$ANGBASE
 50
0.0
  9
$ANGDIR
 70
     0
  9
$PDMODE
 70
     0
  9
$PDSIZE
 40
0.0
  9
$PLINEWID
 40
0.0
  9
$SPLFRAME
 70
     0
  9
$SPLINETYPE
 70
     6
  9
$SPLINESEGS
 70
     8
  9
$HANDSEED
  5
24D
  9
$SURFTAB1
 70
     6
  9
$SURFTAB2
 70
     6
  9
$SURFTYPE
 70
     6
  9
$SURFU
 70
     6
  9
$SURFV
 70
     6
  9
$UCSBASE
  2

  9
$UCSNAME
  2

  9
$UCSORG
 10
0.0
 20
0.0
 30
0.0
  9
$UCSXDIR
 10
1.0
 20
0.0
 30
0.0
  9
$UCSYDIR
 10
0.0
 20
1.0
 30
0.0
  9
$UCSORTHOREF
  2

  9
$UCSORTHOVIEW
 70
     0
  9
$UCSORGTOP
 10
0.0
 20
0.0
 30
0.0
  9
$UCSORGBOTTOM
 10
0.0
 20
0.0
 30
0.0
  9
$UCSORGLEFT
 10
0.0
 20
0.0
 30
0.0
  9
$UCSORGRIGHT
 10
0.0
 20
0.0
 30
0.0
  9
$UCSORGFRONT
 10
0.0
 20
0.0
 30
0.0
  9
$UCSORGBACK
 10
0.0
 20
0.0
 30
0.0
  9
$PUCSBASE
  2

  9
$PUCSNAME
  2

  9
$PUCSORG
 10
0.0
 20
0.0
 30
0.0
  9
$PUCSXDIR
 10
1.0
 20
0.0
 30
0.0
  9
$PUCSYDIR
 10
0.0
 20
1.0
 30
0.0
  9
$PUCSORTHOREF
  2

  9
$PUCSORTHOVIEW
 70
     0
  9
$PUCSORGTOP
 10
0.0
 20
0.0
 30
0.0
  9
$PUCSORGBOTTOM
 10
0.0
 20
0.0
 30
0.0
  9
$PUCSORGLEFT
 10
0.0
 20
0.0
 30
0.0
  9
$PUCSORGRIGHT
 10
0.0
 20
0.0
 30
0.0
  9
$PUCSORGFRONT
 10
0.0
 20
0.0
 30
0.0
  9
$PUCSORGBACK
 10
0.0
 20
0.0
 30
0.0
  9
$USERI1
 70
     0
  9
$USERI2
 70
     0
  9
$USERI3
 70
     0
  9
$USERI4
 70
     0
  9
$USERI5
 70
     0
  9
$USERR1
 40
18.1
  9
$USERR2
 40
0.0
  9
$USERR3
 40
0.0
  9
$USERR4
 40
0.0
  9
$USERR5
 40
0.0
  9
$WORLDVIEW
 70
     1
  9
$SHADEDGE
 70
     3
  9
$SHADEDIF
 70
    70
  9
$TILEMODE
 70
     1
  9
$MAXACTVP
 70
    64
  9
$PINSBASE
 10
0.0
 20
0.0
 30
0.0
  9
$PLIMCHECK
 70
     0
  9
$PEXTMIN
 10
1.00000000000000E+20
 20
1.00000000000000E+20
 30
1.00000000000000E+20
  9
$PEXTMAX
 10
-1.00000000000000E+20
 20
-1.00000000000000E+20
 30
-1.00000000000000E+20
  9
$PLIMMIN
 10
0.0
 20
0.0
  9
$PLIMMAX
 10
12.0
 20
9.0
  9
$UNITMODE
 70
     0
  9
$VISRETAIN
 70
     1
  9
$PLINEGEN
 70
     0
  9
$PSLTSCALE
 70
     1
  9
$TREEDEPTH
 70
  3020
  9
$CMLSTYLE
  2
Standard
  9
$CMLJUST
 70
     0
  9
$CMLSCALE
 40
1.0
  9
$PROXYGRAPHICS
 70
     1
  9
$MEASUREMENT
 70
     1
  9
$CELWEIGHT
370
    -1
  9
$ENDCAPS
280
     0
  9
$JOINSTYLE
280
     0
  9
$LWDISPLAY
290
     0
  9
$INSUNITS
 70
     4
  9
$HYPERLINKBASE
  1

  9
$STYLESHEET
  1

  9
$XEDIT
290
     1
  9
$CEPSNTYPE
380
     0
  9
$PSTYLEMODE
290
     1
  9
$FINGERPRINTGUID
  2
{24FE3F75-7A07-401D-B3F0-43C79042737F}
  9
$VERSIONGUID
  2
{FAEB1C32-E019-11D5-929B-00C0DF256EC4}
  9
$EXTNAMES
290
     1
  9
$PSVPSCALE
 40
0.0
  9
$OLESTARTUP
290
     0
  0
ENDSEC
  0
SECTION
  2
CLASSES
  0
CLASS
  1
ACDBDICTIONARYWDFLT
  2
AcDbDictionaryWithDefault
  3
ObjectDBX Classes
 90
        0
280
     0
281
     0
  0
CLASS
  1
VISUALSTYLE
  2
AcDbVisualStyle
  3
ObjectDBX Classes
 90
     4095
280
     0
281
     0
  0
CLASS
  1
MATERIAL
  2
AcDbMaterial
  3
ObjectDBX Classes
 90
     1153
280
     0
281
     0
  0
CLASS
  1
DICTIONARYVAR
  2
AcDbDictionaryVar
  3
ObjectDBX Classes
 90
        0
280
     0
281
     0
  0
CLASS
  1
ACDBPLACEHOLDER
  2
AcDbPlaceHolder
  3
ObjectDBX Classes
 90
        0
280
     0
281
     0
  0
CLASS
  1
LAYOUT
  2
AcDbLayout
  3
ObjectDBX Classes
 90
        0
280
     0
281
     0
  0
ENDSEC
  0
SECTION
  2
TABLES
  0
TABLE
  2
VPORT
  5
8
330
0
100
AcDbSymbolTable
 70
     1
  0
VPORT
  5
29
330
8
100
AcDbSymbolTableRecord
100
AcDbViewportTableRecord
  2
*Active
 70
     0
 10
0.0
 20
0.0
 11
1.0
 21
1.0
 12
-105.0000000000001
 22
148.5000000000001
 13
0.0
 23
0.0
 14
0.5
 24
0.5
 15
0.5
 25
0.5
 16
0.0
 26
0.0
 36
1.0
 17
0.0
 27
0.0
 37
0.0
 40
326.7000000000002
 41
1.60267857142857
 42
50.0
 43
0.0
 44
0.0
 50
0.0
 51
0.0
 71
     0
 72
   100
 73
     1
 74
     3
 75
     0
 76
     0
 77
     0
 78
     0
281
     0
 65
     1
110
0.0
120
0.0
130
0.0
111
1.0
121
0.0
131
0.0
112
0.0
122
1.0
132
0.0
 79
     0
146
0.0
  0
ENDTAB
  0
TABLE
  2
LTYPE
  5
5
330
0
100
AcDbSymbolTable
 70
     8
  0
LTYPE
  5
14
330
5
100
AcDbSymbolTableRecord
100
AcDbLinetypeTableRecord
  2
ByBlock
 70
     0
  3

 72
    65
 73
     0
 40
0.0
  0
LTYPE
  5
15
330
5
100
AcDbSymbolTableRecord
100
AcDbLinetypeTableRecord
  2
ByLayer
 70
     0
  3

 72
    65
 73
     0
 40
0.0
  0
LTYPE
  5
16
330
5
100
AcDbSymbolTableRecord
100
AcDbLinetypeTableRecord
  2
Continuous
 70
     0
  3
Solid line
 72
    65
 73
     0
 40
0.0
  0
LTYPE
  5
3F
330
5
100
AcDbSymbolTableRecord
100
AcDbLinetypeTableRecord
  2
DASHED
 70
     0
  3
Dashed
 72
    65
 73
     2
 40
15.0
 49
7.0
 74
     0
 49
-8.0
 74
     0
  0
LTYPE
  5
40
330
5
100
AcDbSymbolTableRecord
100
AcDbLinetypeTableRecord
  2
DOTTED
 70
     0
  3
Dotted
 72
    65
 73
     2
 40
1.0
 49
0.0
 74
     0
 49
-1.0
 74
     0
  0
LTYPE
  5
41
330
5
100
AcDbSymbolTableRecord
100
AcDbLinetypeTableRecord
  2
DOT_CENTER
 70
     0
  3
Dot_Center
 72
    65
 73
     4
 40
14.0
 49
12.0
 74
     0
 49
-1.0
 74
     0
 49
0.0
 74
     0
 49
-1.0
 74
     0
  0
LTYPE
  5
42
330
5
100
AcDbSymbolTableRecord
100
AcDbLinetypeTableRecord
  2
LONG_DASHED
 70
     0
  3
Long_Dashed
 72
    65
 73
     2
 40
15.0
 49
10.0
 74
     0
 49
-5.0
 74
     0
  0
LTYPE
  5
43
330
5
100
AcDbSymbolTableRecord
100
AcDbLinetypeTableRecord
  2
DASH_CENTER
 70
     0
  3
Dash_Center
 72
    65
 73
     4
 40
14.0
 49
11.0
 74
     0
 49
-1.0
 74
     0
 49
1.0
 74
     0
 49
-1.0
 74
     0
  0
LTYPE
  5
44
330
5
100
AcDbSymbolTableRecord
100
AcDbLinetypeTableRecord
  2
PHANTOM
 70
     0
  3
Phantom
 72
    65
 73
     6
 40
13.0
 49
10.0
 74
     0
 49
-1.0
 74
     0
 49
0.0
 74
     0
 49
-1.0
 74
     0
 49
0.0
 74
     0
 49
-1.0
 74
     0
  0
LTYPE
  5
45
330
5
100
AcDbSymbolTableRecord
100
AcDbLinetypeTableRecord
  2
CENTER_DASH_DASH
 70
     0
  3
Center_Dash_Dash
 72
    65
 73
     6
 40
14.0
 49
9.0
 74
     0
 49
-1.0
 74
     0
 49
1.0
 74
     0
 49
-1.0
 74
     0
 49
1.0
 74
     0
 49
-1.0
 74
     0
  0
ENDTAB
  0
TABLE
  2
LAYER
  5
2
330
0
100
AcDbSymbolTable
 70
     2
  0
LAYER
  5
10
330
2
100
AcDbSymbolTableRecord
100
AcDbLayerTableRecord
  2
0
 70
     0
 62
     7
  6
Continuous
370
    -3
390
F
  0
LAYER
  5
46
330
2
100
AcDbSymbolTableRecord
100
AcDbLayerTableRecord
  2
1
 70
     0
 62
     7
  6
Continuous
370
    -3
390
F
  0
ENDTAB
  0
TABLE
  2
STYLE
  5
3
330
0
100
AcDbSymbolTable
 70
     4
  0
STYLE
  5
11
330
3
100
AcDbSymbolTableRecord
100
AcDbTextStyleTableRecord
  2
Standard
 70
     0
 40
0.0
 41
1.0
 50
0.0
 71
     0
 42
0.2
  3
txt
  4

  0
STYLE
  5
1E6
330
3
100
AcDbSymbolTableRecord
100
AcDbTextStyleTableRecord
  2
CONVERTER_11
 70
     0
 40
0.0
 41
1.2
 50
0.0
 71
     0
 42
0.2
  3
ARIAL.TTF
  4

  0
STYLE
  5
1EF
330
3
100
AcDbSymbolTableRecord
100
AcDbTextStyleTableRecord
  2
CONVERTER_12
 70
     0
 40
0.0
 41
1.38
 50
0.0
 71
     0
 42
0.2
  3
ARIAL.TTF
  4

  0
STYLE
  5
1F7
330
3
100
AcDbSymbolTableRecord
100
AcDbTextStyleTableRecord
  2
CONVERTER_13
 70
     0
 40
0.0
 41
0.95
 50
0.0
 71
     0
 42
0.2
  3
simplex.shx
  4

  0
ENDTAB
  0
TABLE
  2
VIEW
  5
6
330
0
100
AcDbSymbolTable
 70
     0
  0
ENDTAB
  0
TABLE
  2
UCS
  5
7
330
0
100
AcDbSymbolTable
 70
     0
  0
ENDTAB
  0
TABLE
  2
APPID
  5
9
330
0
100
AcDbSymbolTable
 70
     1
  0
APPID
  5
12
330
9
100
AcDbSymbolTableRecord
100
AcDbRegAppTableRecord
  2
ACAD
 70
     0
  0
ENDTAB
  0
TABLE
  2
DIMSTYLE
  5
A
330
0
100
AcDbSymbolTable
 70
     5
100
AcDbDimStyleTable
  0
DIMSTYLE
105
27
330
A
100
AcDbSymbolTableRecord
100
AcDbDimStyleTableRecord
  2
Standard
 70
     0
178
     0
340
11
  0
DIMSTYLE
105
1FB
102
{ACAD_REACTORS
330
1FC
102
}
330
A
100
AcDbSymbolTableRecord
100
AcDbDimStyleTableRecord
  2
ME10_DIM_10
 70
     0
 41
3.0
 42
0.5
 44
1.0
 73
     0
 74
     0
 77
     1
 78
     8
140
3.0
147
2.0
172
     1
173
     1
174
     1
175
     1
176
     2
177
     2
271
     2
178
     4
271
     2
340
1F7
  0
DIMSTYLE
105
206
102
{ACAD_REACTORS
330
207
102
}
330
A
100
AcDbSymbolTableRecord
100
AcDbDimStyleTableRecord
  2
ME10_DIM_11
 70
     0
 41
3.0
 42
0.5
 44
1.0
 73
     0
 74
     0
 77
     1
 78
     8
140
3.0
147
2.0
172
     1
173
     1
174
     1
175
     1
176
     2
177
     2
271
     2
178
     4
271
     2
340
1F7
  0
DIMSTYLE
105
211
102
{ACAD_REACTORS
330
212
102
}
330
A
100
AcDbSymbolTableRecord
100
AcDbDimStyleTableRecord
  2
ME10_DIM_12
 70
     0
 41
3.0
 42
0.5
 44
1.0
 73
     0
 74
     0
 77
     1
 78
     8
140
3.0
147
2.0
172
     1
173
     1
174
     1
175
     1
176
     2
177
     2
271
     2
178
     4
271
     2
340
1F7
  0
DIMSTYLE
105
21C
102
{ACAD_REACTORS
330
21D
102
}
330
A
100
AcDbSymbolTableRecord
100
AcDbDimStyleTableRecord
  2
ME10_DIM_13
 70
     0
 41
3.0
 42
0.5
 44
1.0
 73
     0
 74
     0
 77
     1
 78
     8
140
3.0
147
2.0
172
     1
173
     1
174
     1
175
     1
176
     2
177
     2
271
     2
178
     4
271
     2
340
1F7
  0
ENDTAB
  0
TABLE
  2
BLOCK_RECORD
  5
1
330
0
100
AcDbSymbolTable
 70
     5
  0
BLOCK_RECORD
  5
1F
330
1
100
AcDbSymbolTableRecord
100
AcDbBlockTableRecord
  2
*Model_Space
340
22
  0
BLOCK_RECORD
  5
1B
330
1
100
AcDbSymbolTableRecord
100
AcDbBlockTableRecord
  2
*Paper_Space
340
1E
  0
BLOCK_RECORD
  5
23
330
1
100
AcDbSymbolTableRecord
100
AcDbBlockTableRecord
  2
*Paper_Space0
340
26
  0
BLOCK_RECORD
  5
1F1
330
1
100
AcDbSymbolTableRecord
100
AcDbBlockTableRecord
  2
*D1
340
0
  0
BLOCK_RECORD
  5
1FD
330
1
100
AcDbSymbolTableRecord
100
AcDbBlockTableRecord
  2
*D2
340
0
  0
BLOCK_RECORD
  5
208
330
1
100
AcDbSymbolTableRecord
100
AcDbBlockTableRecord
  2
*D3
340
0
  0
BLOCK_RECORD
  5
213
330
1
100
AcDbSymbolTableRecord
100
AcDbBlockTableRecord
  2
*D4
340
0
  0
ENDTAB
  0
ENDSEC
  0
SECTION
  2
BLOCKS
  0
BLOCK
  5
20
330
1F
100
AcDbEntity
  8
0
100
AcDbBlockBegin
  2
*Model_Space
 70
     0
 10
0.0
 20
0.0
 30
0.0
  3
*Model_Space
  1

  0
ENDBLK
  5
21
330
1F
100
AcDbEntity
  8
0
100
AcDbBlockEnd
  0
BLOCK
  5
1C
330
1B
100
AcDbEntity
 67
     1
  8
0
100
AcDbBlockBegin
  2
*Paper_Space
 70
     0
 10
0.0
 20
0.0
 30
0.0
  3
*Paper_Space
  1

  0
ENDBLK
  5
1D
330
1B
100
AcDbEntity
 67
     1
  8
0
100
AcDbBlockEnd
  0
BLOCK
  5
24
330
23
100
AcDbEntity
  8
0
100
AcDbBlockBegin
  2
*Paper_Space0
 70
     0
 10
0.0
 20
0.0
 30
0.0
  3
*Paper_Space0
  1

  0
ENDBLK
  5
25
330
23
100
AcDbEntity
  8
0
100
AcDbBlockEnd
  0
BLOCK
  5
1F9
330
1F1
100
AcDbEntity
  8
0
100
AcDbBlockBegin
  2
*D1
 70
     1
 10
0.0
 20
0.0
 30
0.0
  3
*D1
  1

  0
LINE
  5
1F2
330
1F1
100
AcDbEntity
  8
1
  6
Continuous
 62
     2
100
AcDbLine
 10
-69.13365518272815
 20
199.551846700831
 30
0.0
 11
-34.5336551827282
 21
199.551846700831
 31
0.0
  0
LINE
  5
1F3
330
1F1
100
AcDbEntity
  8
1
  6
Continuous
 62
     2
100
AcDbLine
 10
-69.13365518272815
 20
180.5446677208612
 30
0.0
 11
-69.13365518272815
 21
200.551846700831
 31
0.0
  0
LINE
  5
1F4
330
1F1
100
AcDbEntity
  8
1
  6
Continuous
 62
     2
100
AcDbLine
 10
-34.5336551827282
 20
180.5446677208612
 30
0.0
 11
-34.5336551827282
 21
200.551846700831
 31
0.0
  0
SOLID
  5
1F5
330
1F1
100
AcDbEntity
  8
1
 62
     2
100
AcDbTrace
 10
-66.13365518272815
 20
199.9468041935932
 30
0.0
 11
-66.13365518272815
 21
199.1568892080688
 31
0.0
 12
-69.13365518272815
 22
199.551846700831
 32
0.0
 13
-69.13365518272815
 23
199.551846700831
 33
0.0
  0
SOLID
  5
1F6
330
1F1
100
AcDbEntity
  8
1
 62
     2
100
AcDbTrace
 10
-37.5336551827282
 20
199.1568892080688
 30
0.0
 11
-37.5336551827282
 21
199.9468041935932
 31
0.0
 12
-34.5336551827282
 22
199.551846700831
 32
0.0
 13
-34.5336551827282
 23
199.551846700831
 33
0.0
  0
MTEXT
  5
1F8
330
1F1
100
AcDbEntity
  8
1
 62
     4
100
AcDbMText
 10
-55.95865518272817
 20
201.851846700831
 30
0.0
 40
3.0
 41
0.0
 71
     7
 72
     1
  1
34,6
  7
CONVERTER_13
 11
0.9999999999970619
 21
2.424068405545306E-6
 31
0.0
 73
     1
 44
0.60024009603842
  0
ENDBLK
  5
1FA
330
1F1
100
AcDbEntity
  8
0
100
AcDbBlockEnd
  0
BLOCK
  5
204
330
1FD
100
AcDbEntity
  8
0
100
AcDbBlockBegin
  2
*D2
 70
     1
 10
0.0
 20
0.0
 30
0.0
  3
*D2
  1

  0
LINE
  5
1FE
330
1FD
100
AcDbEntity
  8
1
  6
Continuous
 62
     2
100
AcDbLine
 10
-160.072069508458
 20
186.7446677208613
 30
0.0
 11
-160.072069508458
 21
169.7446677208613
 31
0.0
  0
LINE
  5
1FF
330
1FD
100
AcDbEntity
  8
1
  6
Continuous
 62
     2
100
AcDbLine
 10
-147.6308249258621
 20
186.7446677208613
 30
0.0
 11
-161.072069508458
 21
186.7446677208613
 31
0.0
  0
LINE
  5
200
330
1FD
100
AcDbEntity
  8
1
  6
Continuous
 62
     2
100
AcDbLine
 10
-149.8308249258621
 20
169.7446677208613
 30
0.0
 11
-161.072069508458
 21
169.7446677208613
 31
0.0
  0
SOLID
  5
201
330
1FD
100
AcDbEntity
  8
1
 62
     2
100
AcDbTrace
 10
-159.6771120156958
 20
183.7446677208613
 30
0.0
 11
-160.4670270012202
 21
183.7446677208613
 31
0.0
 12
-160.072069508458
 22
186.7446677208613
 32
0.0
 13
-160.072069508458
 23
186.7446677208613
 33
0.0
  0
SOLID
  5
202
330
1FD
100
AcDbEntity
  8
1
 62
     2
100
AcDbTrace
 10
-160.4670270012202
 20
172.7446677208613
 30
0.0
 11
-159.6771120156958
 21
172.7446677208613
 31
0.0
 12
-160.072069508458
 22
169.7446677208613
 32
0.0
 13
-160.072069508458
 23
169.7446677208613
 33
0.0
  0
MTEXT
  5
203
330
1FD
100
AcDbEntity
  8
1
 62
     4
100
AcDbMText
 10
-162.072069508458
 20
176.4446677208613
 30
0.0
 40
3.0
 41
0.0
 71
     7
 72
     1
  1
17
  7
CONVERTER_13
 11
0.0
 21
1.0
 31
0.0
 73
     1
 44
0.60024009603842
  0
ENDBLK
  5
205
330
1FD
100
AcDbEntity
  8
0
100
AcDbBlockEnd
  0
BLOCK
  5
20F
330
208
100
AcDbEntity
  8
0
100
AcDbBlockBegin
  2
*D3
 70
     1
 10
0.0
 20
0.0
 30
0.0
  3
*D3
  1

  0
LINE
  5
209
330
208
100
AcDbEntity
  8
1
  6
Continuous
 62
     2
100
AcDbLine
 10
-160.112447751958
 20
126.1446674284021
 30
0.0
 11
-160.112447751958
 21
97.1446674284021
 31
0.0
  0
LINE
  5
20A
330
208
100
AcDbEntity
  8
1
  6
Continuous
 62
     2
100
AcDbLine
 10
-142.0808249258621
 20
126.1446674284021
 30
0.0
 11
-161.112447751958
 21
126.1446674284021
 31
0.0
  0
LINE
  5
20B
330
208
100
AcDbEntity
  8
1
  6
Continuous
 62
     2
100
AcDbLine
 10
-142.0808249258621
 20
97.1446674284021
 30
0.0
 11
-161.112447751958
 21
97.1446674284021
 31
0.0
  0
SOLID
  5
20C
330
208
100
AcDbEntity
  8
1
 62
     2
100
AcDbTrace
 10
-159.7174902591958
 20
123.1446674284021
 30
0.0
 11
-160.5074052447202
 21
123.1446674284021
 31
0.0
 12
-160.112447751958
 22
126.1446674284021
 32
0.0
 13
-160.112447751958
 23
126.1446674284021
 33
0.0
  0
SOLID
  5
20D
330
208
100
AcDbEntity
  8
1
 62
     2
100
AcDbTrace
 10
-160.5074052447202
 20
100.1446674284021
 30
0.0
 11
-159.7174902591958
 21
100.1446674284021
 31
0.0
 12
-160.112447751958
 22
97.1446674284021
 32
0.0
 13
-160.112447751958
 23
97.1446674284021
 33
0.0
  0
MTEXT
  5
20E
330
208
100
AcDbEntity
  8
1
 62
     4
100
AcDbMText
 10
-162.112447751958
 20
109.3946674284021
 30
0.0
 40
3.0
 41
0.0
 71
     7
 72
     1
  1
29
  7
CONVERTER_13
 11
0.0
 21
1.0
 31
0.0
 73
     1
 44
0.60024009603842
  0
ENDBLK
  5
210
330
208
100
AcDbEntity
  8
0
100
AcDbBlockEnd
  0
BLOCK
  5
21A
330
213
100
AcDbEntity
  8
0
100
AcDbBlockBegin
  2
*D4
 70
     1
 10
0.0
 20
0.0
 30
0.0
  3
*D4
  1

  0
LINE
  5
214
330
213
100
AcDbEntity
  8
1
  6
Continuous
 62
     2
100
AcDbLine
 10
-149.3308249258621
 20
79.1936423560199
 30
0.0
 11
-101.3308249258621
 21
79.1936423560199
 31
0.0
  0
LINE
  5
215
330
213
100
AcDbEntity
  8
1
  6
Continuous
 62
     2
100
AcDbLine
 10
-149.3308249258621
 20
104.3946674284021
 30
0.0
 11
-149.3308249258621
 21
78.1936423560199
 31
0.0
  0
LINE
  5
216
330
213
100
AcDbEntity
  8
1
  6
Continuous
 62
     2
100
AcDbLine
 10
-101.3308249258621
 20
104.3946674284021
 30
0.0
 11
-101.3308249258621
 21
78.1936423560199
 31
0.0
  0
SOLID
  5
217
330
213
100
AcDbEntity
  8
1
 62
     2
100
AcDbTrace
 10
-146.3308249258621
 20
79.58859984878208
 30
0.0
 11
-146.3308249258621
 21
78.7986848632577
 31
0.0
 12
-149.3308249258621
 22
79.1936423560199
 32
0.0
 13
-149.3308249258621
 23
79.1936423560199
 33
0.0
  0
SOLID
  5
218
330
213
100
AcDbEntity
  8
1
 62
     2
100
AcDbTrace
 10
-104.3308249258621
 20
78.7986848632577
 30
0.0
 11
-104.3308249258621
 21
79.58859984878208
 31
0.0
 12
-101.3308249258621
 22
79.1936423560199
 32
0.0
 13
-101.3308249258621
 23
79.1936423560199
 33
0.0
  0
MTEXT
  5
219
330
213
100
AcDbEntity
  8
1
 62
     4
100
AcDbMText
 10
-127.5808249258621
 20
81.1936423560199
 30
0.0
 40
3.0
 41
0.0
 71
     7
 72
     1
  1
48
  7
CONVERTER_13
 11
0.9999999999970619
 21
2.424068405545306E-6
 31
0.0
 73
     1
 44
0.60024009603842
  0
ENDBLK
  5
21B
330
213
100
AcDbEntity
  8
0
100
AcDbBlockEnd
  0
ENDSEC
  0
SECTION
  2
ENTITIES
  0
LINE
  5
47
330
1F
100
AcDbEntity
  8
0
  6
Continuous
 62
     2
100
AcDbLine
 10
-141.8308249258621
 20
183.7446677208613
 30
0.0
 11
-148.1308249258621
 21
183.7446677208613
 31
0.0
  0
LINE
  5
48
330
1F
100
AcDbEntity
  8
0
  6
Continuous
 62
     7
100
AcDbLine
 10
-148.1308249258621
 20
183.7446677208613
 30
0.0
 11
-148.1308249258621
 21
185.7446677208613
 31
0.0
  0
LINE
  5
49
330
1F
100
AcDbEntity
  8
0
  6
Continuous
 62
     7
100
AcDbLine
 10
-147.1308249258621
 20
186.7446677208613
 30
0.0
 11
-145.1308249258621
 21
186.7446677208613
 31
0.0
  0
LINE
  5
4A
330
1F
100
AcDbEntity
  8
0
  6
Continuous
 62
     7
100
AcDbLine
 10
-105.5308249258621
 20
186.7446677208613
 30
0.0
 11
-108.8308249258621
 21
186.7446677208613
 31
0.0
  0
LINE
  5
4B
330
1F
100
AcDbEntity
  8
0
  6
Continuous
 62
     7
100
AcDbLine
 10
-149.3308249258621
 20
174.7446677208613
 30
0.0
 11
-141.5808249258621
 21
174.7446677208613
 31
0.0
  0
LINE
  5
4C
330
1F
100
AcDbEntity
  8
0
  6
Continuous
 62
     7
100
AcDbLine
 10
-148.1308249258621
 20
183.7446677208613
 30
0.0
 11
-148.1308249258621
 21
174.7446677208613
 31
0.0
  0
LINE
  5
4D
330
1F
100
AcDbEntity
  8
0
  6
Continuous
 62
     7
100
AcDbLine
 10
-149.3308249258621
 20
169.7446677208613
 30
0.0
 11
-149.3308249258621
 21
174.7446677208613
 31
0.0
  0
LINE
  5
4E
330
1F
100
AcDbEntity
  8
0
  6
Continuous
 62
     7
100
AcDbLine
 10
-109.0808249258621
 20
169.7446677208613
 30
0.0
 11
-141.5808249258621
 21
169.7446677208613
 31
0.0
  0
LINE
  5
4F
330
1F
100
AcDbEntity
  8
0
  6
Continuous
 62
     7
100
AcDbLine
 10
-149.3308249258621
 20
169.7446677208613
 30
0.0
 11
-141.5808249258621
 21
169.7446677208613
 31
0.0
  0
LINE
  5
50
330
1F
100
AcDbEntity
  8
0
  6
Continuous
 62
     7
100
AcDbLine
 10
-109.0808249258621
 20
174.7446677208613
 30
0.0
 11
-122.0808249258621
 21
174.7446677208613
 31
0.0
  0
LINE
  5
51
330
1F
100
AcDbEntity
  8
0
  6
Continuous
 62
     2
100
AcDbLine
 10
-141.5808249258621
 20
169.7446677208613
 30
0.0
 11
-141.5808249258621
 21
174.7446677208613
 31
0.0
  0
LINE
  5
52
330
1F
100
AcDbEntity
  8
0
  6
Continuous
 62
     7
100
AcDbLine
 10
-128.5808249258621
 20
174.7446677208613
 30
0.0
 11
-141.5808249258621
 21
174.7446677208613
 31
0.0
  0
LINE
  5
53
330
1F
100
AcDbEntity
  8
0
  6
Continuous
 62
     2
100
AcDbLine
 10
-102.5308249258621
 20
183.7446677208613
 30
0.0
 11
-108.8308249258621
 21
183.7446677208613
 31
0.0
  0
LINE
  5
54
330
1F
100
AcDbEntity
  8
0
  6
Continuous
 62
     2
100
AcDbLine
 10
-141.8308249258621
 20
183.7446677208613
 30
0.0
 11
-108.8308249258621
 21
183.7446677208613
 31
0.0
  0
LINE
  5
55
330
1F
100
AcDbEntity
  8
0
  6
Continuous
 62
     2
100
AcDbLine
 10
-141.8308249258621
 20
174.7446677208613
 30
0.0
 11
-141.8308249258621
 21
183.7446677208613
 31
0.0
  0
LINE
  5
56
330
1F
100
AcDbEntity
  8
0
  6
Continuous
 62
     2
100
AcDbLine
 10
-141.8308249258621
 20
183.7446677208613
 30
0.0
 11
-141.8308249258621
 21
186.7446677208613
 31
0.0
  0
LINE
  5
57
330
1F
100
AcDbEntity
  8
0
  6
Continuous
 62
     7
100
AcDbLine
 10
-122.0808249258621
 20
178.2446677208613
 30
0.0
 11
-122.0808249258621
 21
174.7446677208613
 31
0.0
  0
LINE
  5
58
330
1F
100
AcDbEntity
  8
0
  6
Continuous
 62
     7
100
AcDbLine
 10
-128.5808249258621
 20
178.2446677208613
 30
0.0
 11
-128.5808249258621
 21
174.7446677208613
 31
0.0
  0
LINE
  5
59
330
1F
100
AcDbEntity
  8
0
  6
Continuous
 62
     7
100
AcDbLine
 10
-141.8308249258621
 20
186.7446677208613
 30
0.0
 11
-145.1308249258621
 21
186.7446677208613
 31
0.0
  0
LINE
  5
5A
330
1F
100
AcDbEntity
  8
0
  6
Continuous
 62
     7
100
AcDbLine
 10
-141.8308249258621
 20
186.7446677208613
 30
0.0
 11
-108.8308249258621
 21
186.7446677208613
 31
0.0
  0
LINE
  5
5B
330
1F
100
AcDbEntity
  8
0
  6
Continuous
 62
     7
100
AcDbLine
 10
-109.0808249258621
 20
174.7446677208613
 30
0.0
 11
-101.3308249258621
 21
174.7446677208613
 31
0.0
  0
LINE
  5
5C
330
1F
100
AcDbEntity
  8
0
  6
Continuous
 62
     7
100
AcDbLine
 10
-102.5308249258621
 20
183.7446677208613
 30
0.0
 11
-102.5308249258621
 21
174.7446677208613
 31
0.0
  0
LINE
  5
5D
330
1F
100
AcDbEntity
  8
0
  6
Continuous
 62
     2
100
AcDbLine
 10
-108.8308249258621
 20
174.7446677208613
 30
0.0
 11
-108.8308249258621
 21
183.7446677208613
 31
0.0
  0
LINE
  5
5E
330
1F
100
AcDbEntity
  8
0
  6
Continuous
 62
     2
100
AcDbLine
 10
-108.8308249258621
 20
183.7446677208613
 30
0.0
 11
-108.8308249258621
 21
186.7446677208613
 31
0.0
  0
LINE
  5
5F
330
1F
100
AcDbEntity
  8
0
  6
Continuous
 62
     7
100
AcDbLine
 10
-109.0808249258621
 20
169.7446677208613
 30
0.0
 11
-101.3308249258621
 21
169.7446677208613
 31
0.0
  0
LINE
  5
60
330
1F
100
AcDbEntity
  8
0
  6
Continuous
 62
     2
100
AcDbLine
 10
-109.0808249258621
 20
169.7446677208613
 30
0.0
 11
-109.0808249258621
 21
174.7446677208613
 31
0.0
  0
LINE
  5
61
330
1F
100
AcDbEntity
  8
0
  6
Continuous
 62
     7
100
AcDbLine
 10
-101.3308249258621
 20
169.7446677208613
 30
0.0
 11
-101.3308249258621
 21
174.7446677208613
 31
0.0
  0
LINE
  5
62
330
1F
100
AcDbEntity
  8
0
  6
Continuous
 62
     2
100
AcDbLine
 10
-148.1308249258621
 20
118.6446674284021
 30
0.0
 11
-145.1308249258621
 21
118.6446674284021
 31
0.0
  0
LINE
  5
63
330
1F
100
AcDbEntity
  8
0
  6
Continuous
 62
     2
100
AcDbLine
 10
-141.8308249258621
 20
121.9446674284021
 30
0.0
 11
-141.8308249258621
 21
124.9446674284021
 31
0.0
  0
LINE
  5
64
330
1F
100
AcDbEntity
  8
0
  6
Continuous
 62
     7
100
AcDbLine
 10
-146.1308249258621
 20
109.6446674284021
 30
0.0
 11
-146.6308249258621
 21
109.1446674284021
 31
0.0
  0
LINE
  5
65
330
1F
100
AcDbEntity
  8
0
  6
Continuous
 62
     7
100
AcDbLine
 10
-148.1308249258621
 20
118.6446674284021
 30
0.0
 11
-148.1308249258621
 21
114.6446674284021
 31
0.0
  0
LINE
  5
66
330
1F
100
AcDbEntity
  8
0
  6
Continuous
 62
     7
100
AcDbLine
 10
-146.1308249258621
 20
113.6446674284021
 30
0.0
 11
-146.6308249258621
 21
114.1446674284021
 31
0.0
  0
LINE
  5
67
330
1F
100
AcDbEntity
  8
0
  6
Continuous
 62
     7
100
AcDbLine
 10
-148.1308249258621
 20
114.6446674284021
 30
0.0
 11
-147.1308249258621
 21
114.6446674284021
 31
0.0
  0
LINE
  5
68
330
1F
100
AcDbEntity
  8
0
  6
Continuous
 62
     7
100
AcDbLine
 10
-148.1308249258621
 20
108.6446674284021
 30
0.0
 11
-148.1308249258621
 21
104.6446674284021
 31
0.0
  0
LINE
  5
69
330
1F
100
AcDbEntity
  8
0
  6
Continuous
 62
     7
100
AcDbLine
 10
-147.1308249258621
 20
108.6446674284021
 30
0.0
 11
-145.1308249258621
 21
108.6446674284021
 31
0.0
  0
LINE
  5
6A
330
1F
100
AcDbEntity
  8
0
  6
Continuous
 62
     7
100
AcDbLine
 10
-148.1308249258621
 20
108.6446674284021
 30
0.0
 11
-147.1308249258621
 21
108.6446674284021
 31
0.0
  0
LINE
  5
6B
330
1F
100
AcDbEntity
  8
0
  6
Continuous
 62
     7
100
AcDbLine
 10
-147.1308249258621
 20
114.6446674284021
 30
0.0
 11
-145.1308249258621
 21
114.6446674284021
 31
0.0
  0
LINE
  5
6C
330
1F
100
AcDbEntity
  8
0
  6
Continuous
 62
     2
100
AcDbLine
 10
-147.1308249258621
 20
108.6446674284021
 30
0.0
 11
-147.1308249258621
 21
114.6446674284021
 31
0.0
  0
LINE
  5
6D
330
1F
100
AcDbEntity
  8
0
  6
Continuous
 62
     7
100
AcDbLine
 10
-148.1308249258621
 20
108.6446674284021
 30
0.0
 11
-148.1308249258621
 21
114.6446674284021
 31
0.0
  0
LINE
  5
6E
330
1F
100
AcDbEntity
  8
0
  6
Continuous
 62
     2
100
AcDbLine
 10
-145.1308249258621
 20
108.6446674284021
 30
0.0
 11
-145.1308249258621
 21
104.6446674284021
 31
0.0
  0
LINE
  5
6F
330
1F
100
AcDbEntity
  8
0
  6
Continuous
 62
     7
100
AcDbLine
 10
-121.1226072882914
 20
111.7168495605728
 30
0.0
 11
-125.3308249258621
 21
114.1446674284021
 31
0.0
  0
LINE
  5
70
330
1F
100
AcDbEntity
  8
0
  6
Continuous
 62
     7
100
AcDbLine
 10
-125.3308249258621
 20
114.1446674284021
 30
0.0
 11
-129.5390425634328
 21
111.7168495605728
 31
0.0
  0
LINE
  5
71
330
1F
100
AcDbEntity
  8
0
  6
Continuous
 62
     7
100
AcDbLine
 10
-129.5390425634328
 20
111.5724852962314
 30
0.0
 11
-125.3308249258621
 21
109.1446674284021
 31
0.0
  0
LINE
  5
72
330
1F
100
AcDbEntity
  8
0
  6
Continuous
 62
     7
100
AcDbLine
 10
-124.7447084343405
 20
109.962817219266
 30
0.0
 11
-125.3308249258621
 21
110.9780007617354
 31
0.0
  0
LINE
  5
73
330
1F
100
AcDbEntity
  8
0
  6
Continuous
 62
     7
100
AcDbLine
 10
-124.1641582591954
 20
112.7596568543858
 30
0.0
 11
-125.2474453347771
 21
113.3846301672212
 31
0.0
  0
LINE
  5
74
330
1F
100
AcDbEntity
  8
0
  6
Continuous
 62
     7
100
AcDbLine
 10
-126.747445334777
 20
110.2890530839769
 30
0.0
 11
-127.4141120014436
 21
110.6736684685923
 31
0.0
  0
LINE
  5
75
330
1F
100
AcDbEntity
  8
0
  6
Continuous
 62
     7
100
AcDbLine
 10
-127.4141120014436
 20
112.6156663882119
 30
0.0
 11
-126.7474453347771
 21
113.0002817728273
 31
0.0
  0
LINE
  5
76
330
1F
100
AcDbEntity
  8
0
  6
Continuous
 62
     7
100
AcDbLine
 10
-126.8308249258621
 20
112.5673491620781
 30
0.0
 11
-127.2475378502805
 21
112.326937859529
 31
0.0
  0
LINE
  5
77
330
1F
100
AcDbEntity
  8
0
  6
Continuous
 62
     7
100
AcDbLine
 10
-140.1896493634929
 20
109.6407457992267
 30
0.0
 11
-139.6935709926682
 21
109.1446674284021
 31
0.0
  0
LINE
  5
78
330
1F
100
AcDbEntity
  8
0
  6
Continuous
 62
     2
100
AcDbLine
 10
-143.6621979592652
 20
113.6446674284021
 30
0.0
 11
-143.6621979592652
 21
109.6446674284021
 31
0.0
  0
LINE
  5
79
330
1F
100
AcDbEntity
  8
0
  6
Continuous
 62
     2
100
AcDbLine
 10
-145.1308249258621
 20
118.6446674284021
 30
0.0
 11
-145.1308249258621
 21
114.6446674284021
 31
0.0
  0
LINE
  5
7A
330
1F
100
AcDbEntity
  8
0
  6
Continuous
 62
     7
100
AcDbLine
 10
-146.1308249258621
 20
109.6446674284021
 30
0.0
 11
-140.1980963441275
 21
109.6446674284021
 31
0.0
  0
LINE
  5
7B
330
1F
100
AcDbEntity
  8
0
  6
Continuous
 62
     7
100
AcDbLine
 10
-140.1980963441275
 20
113.6446674284021
 30
0.0
 11
-146.1308249258621
 21
113.6446674284021
 31
0.0
  0
LINE
  5
7C
330
1F
100
AcDbEntity
  8
0
  6
Continuous
 62
     2
100
AcDbLine
 10
-140.1896493634929
 20
109.6407457992267
 30
0.0
 11
-140.1896493634929
 21
113.6485890575775
 31
0.0
  0
LINE
  5
7D
330
1F
100
AcDbEntity
  8
0
  6
Continuous
 62
     2
100
AcDbLine
 10
-146.6308249258621
 20
109.1446674284021
 30
0.0
 11
-139.6935709926682
 21
109.1446674284021
 31
0.0
  0
LINE
  5
7E
330
1F
100
AcDbEntity
  8
0
  6
Continuous
 62
     2
100
AcDbLine
 10
-139.6935709926682
 20
114.1446674284021
 30
0.0
 11
-146.6308249258621
 21
114.1446674284021
 31
0.0
  0
LINE
  5
7F
330
1F
100
AcDbEntity
  8
0
  6
Continuous
 62
     7
100
AcDbLine
 10
-140.1896493634929
 20
113.6485890575775
 30
0.0
 11
-139.6935709926682
 21
114.1446674284021
 31
0.0
  0
LINE
  5
80
330
1F
100
AcDbEntity
  8
0
  6
Continuous
 62
     2
100
AcDbLine
 10
-139.6935709926682
 20
109.1446674284021
 30
0.0
 11
-139.6935709926682
 21
114.1446674284021
 31
0.0
  0
LINE
  5
81
330
1F
100
AcDbEntity
  8
0
  6
Continuous
 62
     2
100
AcDbLine
 10
-146.6308249258621
 20
114.1446674284021
 30
0.0
 11
-146.6308249258621
 21
109.1446674284021
 31
0.0
  0
LINE
  5
82
330
1F
100
AcDbEntity
  8
0
  6
Continuous
 62
     7
100
AcDbLine
 10
-146.1308249258621
 20
113.6446674284021
 30
0.0
 11
-146.1308249258621
 21
109.6446674284021
 31
0.0
  0
LINE
  5
83
330
1F
100
AcDbEntity
  8
0
  6
Continuous
 62
     7
100
AcDbLine
 10
-126.8308249258621
 20
111.8113340950688
 30
0.0
 11
-126.8308249258621
 21
112.5673491620781
 31
0.0
  0
LINE
  5
84
330
1F
100
AcDbEntity
  8
0
  6
Continuous
 62
     7
100
AcDbLine
 10
-127.3308249258621
 20
111.8113340950688
 30
0.0
 11
-126.8308249258621
 21
111.8113340950688
 31
0.0
  0
LINE
  5
85
330
1F
100
AcDbEntity
  8
0
  6
Continuous
 62
     7
100
AcDbLine
 10
-127.2475378502805
 20
110.9623969972752
 30
0.0
 11
-126.8308249258621
 21
110.7219856947261
 31
0.0
  0
LINE
  5
86
330
1F
100
AcDbEntity
  8
0
  6
Continuous
 62
     7
100
AcDbLine
 10
-126.8308249258621
 20
110.7219856947261
 30
0.0
 11
-126.8308249258621
 21
111.4780007617354
 31
0.0
  0
LINE
  5
87
330
1F
100
AcDbEntity
  8
0
  6
Continuous
 62
     7
100
AcDbLine
 10
-126.8308249258621
 20
111.4780007617354
 30
0.0
 11
-127.3308249258621
 21
111.4780007617354
 31
0.0
  0
LINE
  5
88
330
1F
100
AcDbEntity
  8
0
  6
Continuous
 62
     7
100
AcDbLine
 10
-126.4974915925288
 20
112.8559175084858
 30
0.0
 11
-126.4974915925288
 21
110.4334173483184
 31
0.0
  0
LINE
  5
89
330
1F
100
AcDbEntity
  8
0
  6
Continuous
 62
     7
100
AcDbLine
 10
-125.0808711836138
 20
113.6733586959042
 30
0.0
 11
-123.9975841080323
 21
113.0483853830687
 31
0.0
  0
LINE
  5
8A
330
1F
100
AcDbEntity
  8
0
  6
Continuous
 62
     7
100
AcDbLine
 10
-124.1641582591954
 20
110.4334173483184
 30
0.0
 11
-124.1641582591954
 21
112.7596568543858
 31
0.0
  0
LINE
  5
8B
330
1F
100
AcDbEntity
  8
0
  6
Continuous
 62
     7
100
AcDbLine
 10
-125.8308249258621
 20
110.7786420246177
 30
0.0
 11
-125.4029937095107
 21
111.5196674284021
 31
0.0
  0
LINE
  5
8C
330
1F
100
AcDbEntity
  8
0
  6
Continuous
 62
     7
100
AcDbLine
 10
-125.3308249258621
 20
110.9780007617354
 30
0.0
 11
-125.9169414173838
 21
109.962817219266
 31
0.0
  0
LINE
  5
8D
330
1F
100
AcDbEntity
  8
0
  6
Continuous
 62
     7
100
AcDbLine
 10
-125.2586561422134
 20
111.5196674284021
 30
0.0
 11
-124.8308249258621
 21
110.7786420246177
 31
0.0
  0
LINE
  5
8E
330
1F
100
AcDbEntity
  8
0
  6
Continuous
 62
     7
100
AcDbLine
 10
-124.8308249258621
 20
110.7786420246177
 30
0.0
 11
-124.8308249258622
 21
112.4708748920856
 31
0.0
  0
LINE
  5
8F
330
1F
100
AcDbEntity
  8
0
  6
Continuous
 62
     7
100
AcDbLine
 10
-124.4974915925288
 20
112.4708748920856
 30
0.0
 11
-124.4974915925288
 21
110.0290587723848
 31
0.0
  0
LINE
  5
90
330
1F
100
AcDbEntity
  8
0
  6
Continuous
 62
     7
100
AcDbLine
 10
-126.1641582591954
 20
110.0290587723848
 30
0.0
 11
-126.1641582591954
 21
113.2405328931012
 31
0.0
  0
LINE
  5
91
330
1F
100
AcDbEntity
  8
0
  6
Continuous
 62
     7
100
AcDbLine
 10
-125.8308249258621
 20
113.2405328931012
 30
0.0
 11
-125.8308249258621
 21
110.7786420246177
 31
0.0
  0
LINE
  5
92
330
1F
100
AcDbEntity
  8
0
  6
Continuous
 62
     7
100
AcDbLine
 10
-123.8308249258621
 20
112.7596568543858
 30
0.0
 11
-123.8308249258622
 21
110.4334173483184
 31
0.0
  0
LINE
  5
93
330
1F
100
AcDbEntity
  8
0
  6
Continuous
 62
     7
100
AcDbLine
 10
-123.4974915925288
 20
110.8180327329337
 30
0.0
 11
-123.4974915925288
 21
112.4713021238704
 31
0.0
  0
LINE
  5
94
330
1F
100
AcDbEntity
  8
0
  6
Continuous
 62
     7
100
AcDbLine
 10
-123.1641582591954
 20
112.4713021238704
 30
0.0
 11
-123.1641582591954
 21
110.8180327329337
 31
0.0
  0
LINE
  5
95
330
1F
100
AcDbEntity
  8
0
  6
Continuous
 62
     7
100
AcDbLine
 10
-125.3308249258621
 20
109.1446674284021
 30
0.0
 11
-121.1226072882914
 21
111.5724852962314
 31
0.0
  0
LINE
  5
96
330
1F
100
AcDbEntity
  8
0
  6
Continuous
 62
     2
100
AcDbLine
 10
-108.8308249258621
 20
121.9446674284021
 30
0.0
 11
-141.8308249258621
 21
121.9446674284021
 31
0.0
  0
LINE
  5
97
330
1F
100
AcDbEntity
  8
0
  6
Continuous
 62
     2
100
AcDbLine
 10
-108.8308249258621
 20
121.9446674284021
 30
0.0
 11
-108.8308249258621
 21
124.9446674284021
 31
0.0
  0
LINE
  5
98
330
1F
100
AcDbEntity
  8
0
  6
Continuous
 62
     7
100
AcDbLine
 10
-108.8308249258621
 20
124.9446674284021
 30
0.0
 11
-141.8308249258621
 21
124.9446674284021
 31
0.0
  0
LINE
  5
99
330
1F
100
AcDbEntity
  8
0
  6
Continuous
 62
     7
100
AcDbLine
 10
-149.3308249258621
 20
104.8946674284021
 30
0.0
 11
-149.3308249258621
 21
118.3946674284021
 31
0.0
  0
LINE
  5
9A
330
1F
100
AcDbEntity
  8
0
  6
Continuous
 62
     2
100
AcDbLine
 10
-141.8308249258621
 20
98.34466742840209
 30
0.0
 11
-141.8308249258621
 21
101.3446674284021
 31
0.0
  0
LINE
  5
9B
330
1F
100
AcDbEntity
  8
0
  6
Continuous
 62
     2
100
AcDbLine
 10
-145.1308249258621
 20
104.6446674284021
 30
0.0
 11
-148.1308249258621
 21
104.6446674284021
 31
0.0
  0
LINE
  5
9C
330
1F
100
AcDbEntity
  8
0
  6
Continuous
 62
     2
100
AcDbLine
 10
-108.8308249258621
 20
101.3446674284021
 30
0.0
 11
-108.8308249258621
 21
98.34466742840209
 31
0.0
  0
LINE
  5
9D
330
1F
100
AcDbEntity
  8
0
  6
Continuous
 62
     2
100
AcDbLine
 10
-102.5308249258621
 20
104.6446674284021
 30
0.0
 11
-105.5308249258621
 21
104.6446674284021
 31
0.0
  0
LINE
  5
9E
330
1F
100
AcDbEntity
  8
0
  6
Continuous
 62
     2
100
AcDbLine
 10
-105.5308249258621
 20
104.6446674284021
 30
0.0
 11
-105.5308249258621
 21
118.6446674284021
 31
0.0
  0
LINE
  5
9F
330
1F
100
AcDbEntity
  8
0
  6
Continuous
 62
     7
100
AcDbLine
 10
-101.3308249258621
 20
118.3946674284021
 30
0.0
 11
-101.3308249258621
 21
104.8946674284021
 31
0.0
  0
LINE
  5
A0
330
1F
100
AcDbEntity
  8
0
  6
Continuous
 62
     7
100
AcDbLine
 10
-102.5308249258621
 20
104.6446674284021
 30
0.0
 11
-102.5308249258621
 21
118.6446674284021
 31
0.0
  0
LINE
  5
A1
330
1F
100
AcDbEntity
  8
0
  6
Continuous
 62
     2
100
AcDbLine
 10
-105.5308249258621
 20
118.6446674284021
 30
0.0
 11
-102.5308249258621
 21
118.6446674284021
 31
0.0
  0
LINE
  5
A2
330
1F
100
AcDbEntity
  8
0
  6
Continuous
 62
     7
100
AcDbLine
 10
-123.530824925862
 20
94.34466742840209
 30
0.0
 11
-123.3308249258621
 21
94.54466742840208
 31
0.0
  0
LINE
  5
A3
330
1F
100
AcDbEntity
  8
0
  6
Continuous
 62
     2
100
AcDbLine
 10
-141.8308249258621
 20
101.3446674284021
 30
0.0
 11
-108.8308249258621
 21
101.3446674284021
 31
0.0
  0
LINE
  5
A4
330
1F
100
AcDbEntity
  8
0
  6
Continuous
 62
     7
100
AcDbLine
 10
-141.8308249258621
 20
98.34466742840209
 30
0.0
 11
-108.8308249258621
 21
98.34466742840209
 31
0.0
  0
LINE
  5
A5
330
1F
100
AcDbEntity
  8
0
  6
Continuous
 62
     7
100
AcDbLine
 10
-122.0808249258621
 20
97.1446674284021
 30
0.0
 11
-128.5808249258621
 21
97.1446674284021
 31
0.0
  0
LINE
  5
A6
330
1F
100
AcDbEntity
  8
0
  6
Continuous
 62
     7
100
AcDbLine
 10
-128.5808249258621
 20
97.1446674284021
 30
0.0
 11
-141.5808249258621
 21
97.1446674284021
 31
0.0
  0
LINE
  5
A7
330
1F
100
AcDbEntity
  8
0
  6
Continuous
 62
     7
100
AcDbLine
 10
-109.0808249258621
 20
97.1446674284021
 30
0.0
 11
-122.0808249258621
 21
97.1446674284021
 31
0.0
  0
LINE
  5
A8
330
1F
100
AcDbEntity
  8
0
  6
Continuous
 62
     7
100
AcDbLine
 10
-128.5808249258621
 20
98.34466742840209
 30
0.0
 11
-128.5808249258621
 21
97.1446674284021
 31
0.0
  0
LINE
  5
A9
330
1F
100
AcDbEntity
  8
0
  6
Continuous
 62
     7
100
AcDbLine
 10
-122.0808249258621
 20
98.34466742840209
 30
0.0
 11
-122.0808249258621
 21
97.1446674284021
 31
0.0
  0
LINE
  5
AA
330
1F
100
AcDbEntity
  8
0
  6
Continuous
 62
     7
100
AcDbLine
 10
-127.1308249258621
 20
94.34466742840209
 30
0.0
 11
-127.3308249258621
 21
94.54466742840208
 31
0.0
  0
LINE
  5
AB
330
1F
100
AcDbEntity
  8
0
  6
Continuous
 62
     7
100
AcDbLine
 10
-123.530824925862
 20
94.34466742840209
 30
0.0
 11
-127.1308249258621
 21
94.34466742840209
 31
0.0
  0
LINE
  5
AC
330
1F
100
AcDbEntity
  8
0
  6
Continuous
 62
     7
100
AcDbLine
 10
-123.3308249258621
 20
97.1446674284021
 30
0.0
 11
-123.3308249258621
 21
94.54466742840208
 31
0.0
  0
LINE
  5
AD
330
1F
100
AcDbEntity
  8
0
  6
Continuous
 62
     7
100
AcDbLine
 10
-127.3308249258621
 20
97.1446674284021
 30
0.0
 11
-127.3308249258621
 21
94.54466742840208
 31
0.0
  0
LINE
  5
AE
330
1F
100
AcDbEntity
  8
0
  6
Continuous
 62
     7
100
AcDbLine
 10
-127.1308249258621
 20
128.9446674284021
 30
0.0
 11
-127.3308249258621
 21
128.7446674284021
 31
0.0
  0
LINE
  5
AF
330
1F
100
AcDbEntity
  8
0
  6
Continuous
 62
     7
100
AcDbLine
 10
-141.5808249258621
 20
126.1446674284021
 30
0.0
 11
-128.5808249258621
 21
126.1446674284021
 31
0.0
  0
LINE
  5
B0
330
1F
100
AcDbEntity
  8
0
  6
Continuous
 62
     7
100
AcDbLine
 10
-122.0808249258621
 20
126.1446674284021
 30
0.0
 11
-109.0808249258621
 21
126.1446674284021
 31
0.0
  0
LINE
  5
B1
330
1F
100
AcDbEntity
  8
0
  6
Continuous
 62
     7
100
AcDbLine
 10
-122.0808249258621
 20
126.1446674284021
 30
0.0
 11
-128.5808249258621
 21
126.1446674284021
 31
0.0
  0
LINE
  5
B2
330
1F
100
AcDbEntity
  8
0
  6
Continuous
 62
     7
100
AcDbLine
 10
-128.5808249258621
 20
126.1446674284021
 30
0.0
 11
-128.5808249258621
 21
124.9446674284021
 31
0.0
  0
LINE
  5
B3
330
1F
100
AcDbEntity
  8
0
  6
Continuous
 62
     7
100
AcDbLine
 10
-122.0808249258621
 20
126.1446674284021
 30
0.0
 11
-122.0808249258621
 21
124.9446674284021
 31
0.0
  0
LINE
  5
B4
330
1F
100
AcDbEntity
  8
0
  6
Continuous
 62
     7
100
AcDbLine
 10
-123.3308249258621
 20
128.7446674284021
 30
0.0
 11
-123.3308249258621
 21
126.1446674284021
 31
0.0
  0
LINE
  5
B5
330
1F
100
AcDbEntity
  8
0
  6
Continuous
 62
     7
100
AcDbLine
 10
-127.3308249258621
 20
128.7446674284021
 30
0.0
 11
-127.3308249258621
 21
126.1446674284021
 31
0.0
  0
LINE
  5
B6
330
1F
100
AcDbEntity
  8
0
  6
Continuous
 62
     7
100
AcDbLine
 10
-123.530824925862
 20
128.9446674284021
 30
0.0
 11
-123.3308249258621
 21
128.7446674284021
 31
0.0
  0
LINE
  5
B7
330
1F
100
AcDbEntity
  8
0
  6
Continuous
 62
     7
100
AcDbLine
 10
-123.530824925862
 20
128.9446674284021
 30
0.0
 11
-127.1308249258621
 21
128.9446674284021
 31
0.0
  0
LINE
  5
B8
330
1F
100
AcDbEntity
  8
0
  6
Continuous
 62
     2
100
AcDbLine
 10
-62.96918085942423
 20
266.3971802853928
 30
0.0
 11
-39.6346570802682
 21
254.7299183958148
 31
0.0
  0
LINE
  5
B9
330
1F
100
AcDbEntity
  8
0
  6
Continuous
 62
     7
100
AcDbLine
 10
-52.29000636575279
 20
277.4243218763938
 30
0.0
 11
-62.18950130236453
 21
272.474574408088
 31
0.0
  0
LINE
  5
BA
330
1F
100
AcDbEntity
  8
0
  6
Continuous
 62
     2
100
AcDbLine
 10
-50.94836557925294
 20
277.3391165147475
 30
0.0
 11
-60.84786051586457
 21
272.3893690464415
 31
0.0
  0
LINE
  5
BB
330
1F
100
AcDbEntity
  8
0
  6
Continuous
 62
     7
100
AcDbLine
 10
-21.60529625776576
 20
265.7570599868158
 30
0.0
 11
-44.9398200369219
 21
277.4243218763938
 31
0.0
  0
LINE
  5
BC
330
1F
100
AcDbEntity
  8
0
  6
Continuous
 62
     2
100
AcDbLine
 10
-22.94693704426572
 20
265.6718546251693
 30
0.0
 11
-46.28146082342164
 21
277.3391165147475
 31
0.0
  0
LINE
  5
BD
330
1F
100
AcDbEntity
  8
0
  6
Continuous
 62
     7
100
AcDbLine
 10
-64.81440813794893
 20
268.6245666461305
 30
0.0
 11
-64.81440813794893
 21
260.8303380120705
 31
0.0
  0
LINE
  5
BE
330
1F
100
AcDbEntity
  8
0
  6
Continuous
 62
     2
100
AcDbLine
 10
-62.96918085942423
 20
266.3971802853928
 30
0.0
 11
-62.96918085942423
 21
258.6029516513329
 31
0.0
  0
LINE
  5
BF
330
1F
100
AcDbEntity
  8
0
  6
Continuous
 62
     7
100
AcDbLine
 10
-54.38490453581949
 20
252.986124630667
 30
0.0
 11
-54.27176745082966
 21
252.9012718169245
 31
0.0
  0
LINE
  5
C0
330
1F
100
AcDbEntity
  8
0
  6
Continuous
 62
     7
100
AcDbLine
 10
-54.88335192935494
 20
256.2457611175348
 30
0.0
 11
-53.04487429826997
 21
257.1649999330774
 31
0.0
  0
LINE
  5
C1
330
1F
100
AcDbEntity
  8
0
  6
Continuous
 62
     7
100
AcDbLine
 10
-54.44854414612632
 20
256.5251940705056
 30
0.0
 11
-54.44854414612632
 21
256.4631650091491
 31
0.0
  0
LINE
  5
C2
330
1F
100
AcDbEntity
  8
0
  6
Continuous
 62
     7
100
AcDbLine
 10
-53.6038912926449
 20
258.2830339218273
 30
0.0
 11
-52.75536315522106
 21
258.7072979905391
 31
0.0
  0
LINE
  5
C3
330
1F
100
AcDbEntity
  8
0
  6
Continuous
 62
     7
100
AcDbLine
 10
-18.98038942218125
 20
261.9070522248583
 30
0.0
 11
-18.98038942218125
 21
254.1128235907983
 31
0.0
  0
LINE
  5
C4
330
1F
100
AcDbEntity
  8
0
  6
Continuous
 62
     2
100
AcDbLine
 10
-20.82561670070595
 20
259.6796658641206
 30
0.0
 11
-20.82561670070595
 21
251.8854372300608
 31
0.0
  0
LINE
  5
C5
330
1F
100
AcDbEntity
  8
0
  6
Continuous
 62
     7
100
AcDbLine
 10
-20.15386525857878
 20
251.3727848137004
 30
0.0
 11
-29.69980680459707
 21
246.5998140406912
 31
0.0
  0
LINE
  5
C6
330
1F
100
AcDbEntity
  8
0
  6
Continuous
 62
     7
100
AcDbLine
 10
-30.7251116373177
 20
246.9356897617548
 30
0.0
 11
-20.82561670070595
 21
251.8854372300608
 31
0.0
  0
LINE
  5
C7
330
1F
100
AcDbEntity
  8
0
  6
Continuous
 62
     2
100
AcDbLine
 10
-20.15386525857878
 20
247.0426577947782
 30
0.0
 11
-20.15386525857878
 21
251.3727848137004
 31
0.0
  0
LINE
  5
C8
330
1F
100
AcDbEntity
  8
0
  6
Continuous
 62
     2
100
AcDbLine
 10
-30.7251116373177
 20
254.7299183958148
 30
0.0
 11
-30.7251116373177
 21
246.9356897617548
 31
0.0
  0
LINE
  5
C9
330
1F
100
AcDbEntity
  8
0
  6
Continuous
 62
     2
100
AcDbLine
 10
-60.84786051586457
 20
270.0559166685259
 30
0.0
 11
-37.51333673670843
 21
258.388654778948
 31
0.0
  0
LINE
  5
CA
330
1F
100
AcDbEntity
  8
0
  6
Continuous
 62
     7
100
AcDbLine
 10
-44.92409848343868
 20
269.3261950233961
 30
0.0
 11
-43.66516573303147
 21
266.9800021703645
 31
0.0
  0
LINE
  5
CB
330
1F
100
AcDbEntity
  8
0
  6
Continuous
 62
     7
100
AcDbLine
 10
-62.96918085942423
 20
258.6029516513329
 30
0.0
 11
-55.39233611026396
 21
254.8145292767529
 31
0.0
  0
LINE
  5
CC
330
1F
100
AcDbEntity
  8
0
  6
Continuous
 62
     7
100
AcDbLine
 10
-55.07020414757608
 20
253.8049351579849
 30
0.0
 11
-63.6409323015514
 21
258.0902992349726
 31
0.0
  0
LINE
  5
CD
330
1F
100
AcDbEntity
  8
0
  6
Continuous
 62
     7
100
AcDbLine
 10
-55.40313830072819
 20
255.0225921604842
 30
0.0
 11
-55.40313830072819
 21
255.1640135167215
 31
0.0
  0
LINE
  5
CE
330
1F
100
AcDbEntity
  8
0
  6
Continuous
 62
     2
100
AcDbLine
 10
-63.6409323015514
 20
253.7601722160504
 30
0.0
 11
-63.6409323015514
 21
258.0902992349726
 31
0.0
  0
LINE
  5
CF
330
1F
100
AcDbEntity
  8
0
  6
Continuous
 62
     2
100
AcDbLine
 10
-49.85235006841367
 20
254.2270970316494
 30
0.0
 11
-49.00382193098983
 21
254.6513611003612
 31
0.0
  0
LINE
  5
D0
330
1F
100
AcDbEntity
  8
0
  6
Continuous
 62
     7
100
AcDbLine
 10
-44.01398247136581
 20
268.3376584937683
 30
0.0
 11
-42.84494447390625
 21
268.9221774924981
 31
0.0
  0
LINE
  5
D1
330
1F
100
AcDbEntity
  8
0
  6
Continuous
 62
     7
100
AcDbLine
 10
-43.74647553590921
 20
268.0000074407054
 30
0.0
 11
-42.10157580650503
 21
268.8224573054076
 31
0.0
  0
LINE
  5
D2
330
1F
100
AcDbEntity
  8
0
  6
Continuous
 62
     7
100
AcDbLine
 10
-40.12963182709882
 20
268.747769123331
 30
0.0
 11
-44.82201753316167
 21
269.3772354985345
 31
0.0
  0
LINE
  5
D3
330
1F
100
AcDbEntity
  8
0
  6
Continuous
 62
     7
100
AcDbLine
 10
-38.87069907669161
 20
266.4015762702994
 30
0.0
 11
-40.12963182709882
 21
268.747769123331
 31
0.0
  0
LINE
  5
D4
330
1F
100
AcDbEntity
  8
0
  6
Continuous
 62
     7
100
AcDbLine
 10
-43.66516573303147
 20
266.9800021703645
 30
0.0
 11
-38.97278002696839
 21
266.350535795161
 31
0.0
  0
LINE
  5
D5
330
1F
100
AcDbEntity
  8
0
  6
Continuous
 62
     2
100
AcDbLine
 10
-38.87069907669161
 20
266.3799822231255
 30
0.0
 11
-38.87069907669161
 21
266.4015762702994
 31
0.0
  0
LINE
  5
D6
330
1F
100
AcDbEntity
  8
0
  6
Continuous
 62
     7
100
AcDbLine
 10
-43.50864411837642
 20
267.2350069638188
 30
0.0
 11
-43.83272088792523
 21
267.8389682161597
 31
0.0
  0
LINE
  5
D7
330
1F
100
AcDbEntity
  8
0
  6
Continuous
 62
     2
100
AcDbLine
 10
-24.36115060663883
 20
261.2170819036941
 30
0.0
 11
-28.60379129375792
 21
259.0957615601345
 31
0.0
  0
LINE
  5
D8
330
1F
100
AcDbEntity
  8
0
  6
Continuous
 62
     7
100
AcDbLine
 10
-28.60379129375792
 20
259.5753192432105
 30
0.0
 11
-28.60379129375792
 21
259.4493149507279
 31
0.0
  0
LINE
  5
D9
330
1F
100
AcDbEntity
  8
0
  6
Continuous
 62
     7
100
AcDbLine
 10
-27.89668451257148
 20
257.8761827657568
 30
0.0
 11
-27.89668451257148
 21
256.1441319581879
 31
0.0
  0
LINE
  5
DA
330
1F
100
AcDbEntity
  8
0
  6
Continuous
 62
     2
100
AcDbLine
 10
-25.06825738782527
 20
261.2170819036941
 30
0.0
 11
-29.97363668679964
 21
263.6697715531814
 31
0.0
  0
LINE
  5
DB
330
1F
100
AcDbEntity
  8
0
  6
Continuous
 62
     2
100
AcDbLine
 10
-25.77536416901194
 20
261.9241886848806
 30
0.0
 11
-22.94693704426572
 21
263.3384022472537
 31
0.0
  0
LINE
  5
DC
330
1F
100
AcDbEntity
  8
0
  6
Continuous
 62
     7
100
AcDbLine
 10
-29.97363668679964
 20
262.9401050590157
 30
0.0
 11
-29.97363668679964
 21
263.6697715531814
 31
0.0
  0
LINE
  5
DD
330
1F
100
AcDbEntity
  8
0
  6
Continuous
 62
     2
100
AcDbLine
 10
-28.60379129375792
 20
259.4493149507279
 30
0.0
 11
-25.06825738782527
 21
261.2170819036941
 31
0.0
  0
LINE
  5
DE
330
1F
100
AcDbEntity
  8
0
  6
Continuous
 62
     2
100
AcDbLine
 10
-25.98082777279342
 20
260.8868010036928
 30
0.0
 11
-29.97043678009572
 21
262.8816055073439
 31
0.0
  0
LINE
  5
DF
330
1F
100
AcDbEntity
  8
0
  6
Continuous
 62
     7
100
AcDbLine
 10
-28.60379129375792
 20
259.5753192432105
 30
0.0
 11
-25.51547098332526
 21
261.119479398427
 31
0.0
  0
LINE
  5
E0
330
1F
100
AcDbEntity
  8
0
  6
Continuous
 62
     7
100
AcDbLine
 10
-24.36115060663883
 20
261.2170819036941
 30
0.0
 11
-25.77536416901194
 21
261.9241886848806
 31
0.0
  0
LINE
  5
E1
330
1F
100
AcDbEntity
  8
0
  6
Continuous
 62
     7
100
AcDbLine
 10
-23.65404382545216
 20
258.2654523017475
 30
0.0
 11
-23.65404382545216
 21
259.9975031093164
 31
0.0
  0
LINE
  5
E2
330
1F
100
AcDbEntity
  8
0
  6
Continuous
 62
     2
100
AcDbLine
 10
-23.65404382545216
 20
259.9975031093164
 30
0.0
 11
-27.89668451257148
 21
257.8761827657568
 31
0.0
  0
LINE
  5
E3
330
1F
100
AcDbEntity
  8
0
  6
Continuous
 62
     7
100
AcDbLine
 10
-33.0619569972323
 20
261.8044020949478
 30
0.0
 11
-28.60379129375792
 21
259.5753192432105
 31
0.0
  0
LINE
  5
E4
330
1F
100
AcDbEntity
  8
0
  6
Continuous
 62
     2
100
AcDbLine
 10
-33.50917059273252
 20
261.9020046002149
 30
0.0
 11
-28.60379129375792
 21
259.4493149507279
 31
0.0
  0
LINE
  5
E5
330
1F
100
AcDbEntity
  8
0
  6
Continuous
 62
     2
100
AcDbLine
 10
-32.84643198087724
 20
258.388654778948
 30
0.0
 11
-30.01800485613103
 21
259.802868341321
 31
0.0
  0
LINE
  5
E6
330
1F
100
AcDbEntity
  8
0
  6
Continuous
 62
     7
100
AcDbLine
 10
-28.60379129375792
 20
259.0957615601345
 30
0.0
 11
-30.01800485613103
 21
259.802868341321
 31
0.0
  0
LINE
  5
E7
330
1F
100
AcDbEntity
  8
0
  6
Continuous
 62
     2
100
AcDbLine
 10
-30.7251116373177
 20
254.7299183958148
 30
0.0
 11
-27.89668451257148
 21
256.1441319581879
 31
0.0
  0
LINE
  5
E8
330
1F
100
AcDbEntity
  8
0
  6
Continuous
 62
     2
100
AcDbLine
 10
-29.97363668679964
 20
263.6697715531814
 30
0.0
 11
-33.50917059273252
 21
261.9020046002149
 31
0.0
  0
LINE
  5
E9
330
1F
100
AcDbEntity
  8
0
  6
Continuous
 62
     2
100
AcDbLine
 10
-29.97363668679964
 20
262.9401050590157
 30
0.0
 11
-32.6534998060838
 21
261.6001734993735
 31
0.0
  0
LINE
  5
EA
330
1F
100
AcDbEntity
  8
0
  6
Continuous
 62
     7
100
AcDbLine
 10
-41.11089231076971
 20
266.7840324631935
 30
0.0
 11
-41.85426097817094
 21
266.8837526502837
 31
0.0
  0
LINE
  5
EB
330
1F
100
AcDbEntity
  8
0
  6
Continuous
 62
     7
100
AcDbLine
 10
-40.1657352926627
 20
268.1404617395601
 30
0.0
 11
-42.43659042102649
 21
267.0050341753781
 31
0.0
  0
LINE
  5
EC
330
1F
100
AcDbEntity
  8
0
  6
Continuous
 62
     7
100
AcDbLine
 10
-41.42599425927403
 20
268.0995879072431
 30
0.0
 11
-40.29370414652476
 21
268.2512860178977
 31
0.0
  0
LINE
  5
ED
330
1F
100
AcDbEntity
  8
0
  6
Continuous
 62
     7
100
AcDbLine
 10
-40.95458973848304
 20
267.274629995859
 30
0.0
 11
-41.48917311904461
 21
267.0073383055781
 31
0.0
  0
LINE
  5
EE
330
1F
100
AcDbEntity
  8
0
  6
Continuous
 62
     7
100
AcDbLine
 10
-41.48917311904461
 20
267.0073383055781
 30
0.0
 11
-41.02451612207392
 21
266.9450062693991
 31
0.0
  0
LINE
  5
EF
330
1F
100
AcDbEntity
  8
0
  6
Continuous
 62
     7
100
AcDbLine
 10
-39.93713278693735
 20
267.8423167459005
 30
0.0
 11
-39.73769241275647
 21
267.4706324122
 31
0.0
  0
LINE
  5
F0
330
1F
100
AcDbEntity
  8
0
  6
Continuous
 62
     7
100
AcDbLine
 10
-42.67229268142194
 20
267.122885305576
 30
0.0
 11
-40.93147295377605
 21
267.993295169399
 31
0.0
  0
LINE
  5
F1
330
1F
100
AcDbEntity
  8
0
  6
Continuous
 62
     7
100
AcDbLine
 10
-41.92892401402082
 20
267.0231651184856
 30
0.0
 11
-40.21595772334081
 21
267.8796482638255
 31
0.0
  0
LINE
  5
F2
330
1F
100
AcDbEntity
  8
0
  6
Continuous
 62
     7
100
AcDbLine
 10
-40.93147295377605
 20
267.993295169399
 30
0.0
 11
-41.75797939610879
 21
267.8825643025178
 31
0.0
  0
LINE
  5
F3
330
1F
100
AcDbEntity
  8
0
  6
Continuous
 62
     7
100
AcDbLine
 10
-40.6010363478897
 20
267.0978533005622
 30
0.0
 11
-40.95458973848304
 21
267.274629995859
 31
0.0
  0
LINE
  5
F4
330
1F
100
AcDbEntity
  8
0
  6
Continuous
 62
     7
100
AcDbLine
 10
-40.71888747808748
 20
267.3924811260566
 30
0.0
 11
-40.36533408749426
 21
267.21570443076
 31
0.0
  0
LINE
  5
F5
330
1F
100
AcDbEntity
  8
0
  6
Continuous
 62
     7
100
AcDbLine
 10
-40.18430409752614
 20
267.6597728163375
 30
0.0
 11
-40.71888747808748
 21
267.3924811260566
 31
0.0
  0
LINE
  5
F6
330
1F
100
AcDbEntity
  8
0
  6
Continuous
 62
     7
100
AcDbLine
 10
-40.05964002516805
 20
267.4274443178521
 30
0.0
 11
-40.18430409752614
 21
267.6597728163375
 31
0.0
  0
LINE
  5
F7
330
1F
100
AcDbEntity
  8
0
  6
Continuous
 62
     7
100
AcDbLine
 10
-43.51077327551377
 20
267.8821563105078
 30
0.0
 11
-43.18669650596485
 21
267.2781950581667
 31
0.0
  0
LINE
  5
F8
330
1F
100
AcDbEntity
  8
0
  6
Continuous
 62
     7
100
AcDbLine
 10
-41.63857973496261
 20
268.3468485599922
 30
0.0
 11
-42.83516907089586
 21
267.7485538920254
 31
0.0
  0
LINE
  5
F9
330
1F
100
AcDbEntity
  8
0
  6
Continuous
 62
     7
100
AcDbLine
 10
-41.86004146872483
 20
267.9335953388259
 30
0.0
 11
-41.63857973496261
 21
268.3468485599922
 31
0.0
  0
LINE
  5
FA
330
1F
100
AcDbEntity
  8
0
  6
Continuous
 62
     7
100
AcDbLine
 10
-43.07087133129153
 20
267.8664050222233
 30
0.0
 11
-41.34424659464037
 21
268.7297173905488
 31
0.0
  0
LINE
  5
FB
330
1F
100
AcDbEntity
  8
0
  6
Continuous
 62
     7
100
AcDbLine
 10
-41.12259803796519
 20
268.6657329636178
 30
0.0
 11
-41.42599425927403
 21
268.0995879072431
 31
0.0
  0
LINE
  5
FC
330
1F
100
AcDbEntity
  8
0
  6
Continuous
 62
     7
100
AcDbLine
 10
-41.86587354610947
 20
268.7046061752099
 30
0.0
 11
-43.51077327551377
 21
267.8821563105078
 31
0.0
  0
LINE
  5
FD
330
1F
100
AcDbEntity
  8
0
  6
Continuous
 62
     7
100
AcDbLine
 10
-42.6092422135107
 20
268.8043263623002
 30
0.0
 11
-43.77828021097014
 21
268.2198073635706
 31
0.0
  0
LINE
  5
FE
330
1F
100
AcDbEntity
  8
0
  6
Continuous
 62
     2
100
AcDbLine
 10
-23.65404382545216
 20
258.2654523017475
 30
0.0
 11
-20.82561670070595
 21
259.6796658641206
 31
0.0
  0
LINE
  5
FF
330
1F
100
AcDbEntity
  8
0
  6
Continuous
 62
     7
100
AcDbLine
 10
-53.0944975473551
 20
252.6680523535351
 30
0.0
 11
-51.25601991627013
 21
253.5872911690776
 31
0.0
  0
LINE
  5
100
330
1F
100
AcDbEntity
  8
0
  6
Continuous
 62
     7
100
AcDbLine
 10
-40.65996191298859
 20
246.5998140406912
 30
0.0
 11
-49.85235006841367
 21
251.1960081184038
 31
0.0
  0
LINE
  5
101
330
1F
100
AcDbEntity
  8
0
  6
Continuous
 62
     2
100
AcDbLine
 10
-39.6346570802682
 20
254.7299183958148
 30
0.0
 11
-39.6346570802682
 21
246.9356897617548
 31
0.0
  0
LINE
  5
102
330
1F
100
AcDbEntity
  8
0
  6
Continuous
 62
     7
100
AcDbLine
 10
-49.00382193098983
 20
251.6202721871158
 30
0.0
 11
-39.6346570802682
 21
246.9356897617548
 31
0.0
  0
LINE
  5
103
330
1F
100
AcDbEntity
  8
0
  6
Continuous
 62
     7
100
AcDbLine
 10
-49.00382193098983
 20
251.6202721871158
 30
0.0
 11
-49.00382193098983
 21
254.6513611003612
 31
0.0
  0
LINE
  5
104
330
1F
100
AcDbEntity
  8
0
  6
Continuous
 62
     7
100
AcDbLine
 10
-49.85235006841367
 20
251.1960081184038
 30
0.0
 11
-49.00382193098983
 21
251.6202721871158
 31
0.0
  0
LINE
  5
105
330
1F
100
AcDbEntity
  8
0
  6
Continuous
 62
     7
100
AcDbLine
 10
-49.85235006841367
 20
254.2270970316494
 30
0.0
 11
-49.85235006841367
 21
251.1960081184038
 31
0.0
  0
LINE
  5
106
330
1F
100
AcDbEntity
  8
0
  6
Continuous
 62
     7
100
AcDbLine
 10
-17.88394281277442
 20
249.7826965718762
 30
0.0
 11
-17.88394281277442
 21
254.1128235907983
 31
0.0
  0
LINE
  5
107
330
1F
100
AcDbEntity
  8
0
  6
Continuous
 62
     7
100
AcDbLine
 10
-40.65996191298859
 20
242.269687021769
 30
0.0
 11
-63.6409323015514
 21
253.7601722160504
 31
0.0
  0
LINE
  5
108
330
1F
100
AcDbEntity
  8
0
  6
Continuous
 62
     2
100
AcDbLine
 10
-40.65996191298859
 20
242.269687021769
 30
0.0
 11
-40.65996191298859
 21
246.5998140406912
 31
0.0
  0
LINE
  5
109
330
1F
100
AcDbEntity
  8
0
  6
Continuous
 62
     7
100
AcDbLine
 10
-65.91085474735564
 20
256.5002109931484
 30
0.0
 11
-65.91085474735564
 21
260.8303380120705
 31
0.0
  0
LINE
  5
10A
330
1F
100
AcDbEntity
  8
0
  6
Continuous
 62
     7
100
AcDbLine
 10
-20.15386525857878
 20
247.0426577947782
 30
0.0
 11
-29.69980680459707
 21
242.269687021769
 31
0.0
  0
LINE
  5
10B
330
1F
100
AcDbEntity
  8
0
  6
Continuous
 62
     2
100
AcDbLine
 10
-29.69980680459707
 20
242.269687021769
 30
0.0
 11
-29.69980680459707
 21
246.5998140406912
 31
0.0
  0
LINE
  5
10C
330
1F
100
AcDbEntity
  8
0
  6
Continuous
 62
     7
100
AcDbLine
 10
-41.53365518272818
 20
186.7446677208612
 30
0.0
 11
-44.83365518272819
 21
186.7446677208612
 31
0.0
  0
LINE
  5
10D
330
1F
100
AcDbEntity
  8
0
  6
Continuous
 62
     7
100
AcDbLine
 10
-48.83365518272819
 20
186.7446677208612
 30
0.0
 11
-44.83365518272819
 21
186.7446677208612
 31
0.0
  0
LINE
  5
10E
330
1F
100
AcDbEntity
  8
0
  6
Continuous
 62
     2
100
AcDbLine
 10
-48.83365518272819
 20
183.7446677208612
 30
0.0
 11
-44.83365518272819
 21
183.7446677208612
 31
0.0
  0
LINE
  5
10F
330
1F
100
AcDbEntity
  8
0
  6
Continuous
 62
     7
100
AcDbLine
 10
-48.83365518272819
 20
183.7446677208612
 30
0.0
 11
-48.83365518272819
 21
185.7446677208612
 31
0.0
  0
LINE
  5
110
330
1F
100
AcDbEntity
  8
0
  6
Continuous
 62
     7
100
AcDbLine
 10
-48.83365518272819
 20
185.7446677208612
 30
0.0
 11
-48.83365518272819
 21
186.7446677208612
 31
0.0
  0
LINE
  5
111
330
1F
100
AcDbEntity
  8
0
  6
Continuous
 62
     2
100
AcDbLine
 10
-38.53365518272818
 20
183.7446677208612
 30
0.0
 11
-44.83365518272819
 21
183.7446677208612
 31
0.0
  0
LINE
  5
112
330
1F
100
AcDbEntity
  8
0
  6
Continuous
 62
     2
100
AcDbLine
 10
-58.83365518272819
 20
183.7446677208612
 30
0.0
 11
-54.83365518272819
 21
183.7446677208612
 31
0.0
  0
LINE
  5
113
330
1F
100
AcDbEntity
  8
0
  6
Continuous
 62
     7
100
AcDbLine
 10
-66.3336551827282
 20
174.7446677208613
 30
0.0
 11
-58.58365518272819
 21
174.7446677208613
 31
0.0
  0
LINE
  5
114
330
1F
100
AcDbEntity
  8
0
  6
Continuous
 62
     2
100
AcDbLine
 10
-58.83365518272819
 20
174.7446677208613
 30
0.0
 11
-58.83365518272819
 21
183.7446677208612
 31
0.0
  0
LINE
  5
115
330
1F
100
AcDbEntity
  8
0
  6
Continuous
 62
     2
100
AcDbLine
 10
-58.83365518272819
 20
183.7446677208612
 30
0.0
 11
-58.83365518272819
 21
186.7446677208612
 31
0.0
  0
LINE
  5
116
330
1F
100
AcDbEntity
  8
0
  6
Continuous
 62
     7
100
AcDbLine
 10
-65.13365518272815
 20
183.7446677208612
 30
0.0
 11
-65.13365518272815
 21
174.7446677208613
 31
0.0
  0
LINE
  5
117
330
1F
100
AcDbEntity
  8
0
  6
Continuous
 62
     7
100
AcDbLine
 10
-58.83365518272819
 20
186.7446677208612
 30
0.0
 11
-62.13365518272815
 21
186.7446677208612
 31
0.0
  0
LINE
  5
118
330
1F
100
AcDbEntity
  8
0
  6
Continuous
 62
     2
100
AcDbLine
 10
-58.83365518272819
 20
183.7446677208612
 30
0.0
 11
-65.13365518272815
 21
183.7446677208612
 31
0.0
  0
LINE
  5
119
330
1F
100
AcDbEntity
  8
0
  6
Continuous
 62
     7
100
AcDbLine
 10
-66.3336551827282
 20
181.4946677208612
 30
0.0
 11
-66.3336551827282
 21
178.2446677208612
 31
0.0
  0
LINE
  5
11A
330
1F
100
AcDbEntity
  8
0
  6
Continuous
 62
     7
100
AcDbLine
 10
-66.3336551827282
 20
181.4946677208612
 30
0.0
 11
-65.13365518272815
 21
181.4946677208612
 31
0.0
  0
LINE
  5
11B
330
1F
100
AcDbEntity
  8
0
  6
Continuous
 62
     7
100
AcDbLine
 10
-69.13365518272815
 20
180.0446677208612
 30
0.0
 11
-69.13365518272815
 21
176.4446677208612
 31
0.0
  0
LINE
  5
11C
330
1F
100
AcDbEntity
  8
0
  6
Continuous
 62
     7
100
AcDbLine
 10
-48.83365518272819
 20
186.7446677208612
 30
0.0
 11
-54.83365518272819
 21
186.7446677208612
 31
0.0
  0
LINE
  5
11D
330
1F
100
AcDbEntity
  8
0
  6
Continuous
 62
     2
100
AcDbLine
 10
-48.83365518272819
 20
185.7446677208612
 30
0.0
 11
-54.83365518272819
 21
185.7446677208612
 31
0.0
  0
LINE
  5
11E
330
1F
100
AcDbEntity
  8
0
  6
Continuous
 62
     7
100
AcDbLine
 10
-69.13365518272815
 20
176.4446677208612
 30
0.0
 11
-68.93365518272816
 21
176.2446677208612
 31
0.0
  0
LINE
  5
11F
330
1F
100
AcDbEntity
  8
0
  6
Continuous
 62
     7
100
AcDbLine
 10
-66.3336551827282
 20
178.2446677208612
 30
0.0
 11
-66.3336551827282
 21
174.7446677208613
 31
0.0
  0
LINE
  5
120
330
1F
100
AcDbEntity
  8
0
  6
Continuous
 62
     7
100
AcDbLine
 10
-37.33365518272819
 20
178.2446677208612
 30
0.0
 11
-37.33365518272819
 21
174.7446677208613
 31
0.0
  0
LINE
  5
121
330
1F
100
AcDbEntity
  8
0
  6
Continuous
 62
     7
100
AcDbLine
 10
-68.93365518272816
 20
176.2446677208612
 30
0.0
 11
-66.3336551827282
 21
176.2446677208612
 31
0.0
  0
LINE
  5
122
330
1F
100
AcDbEntity
  8
0
  6
Continuous
 62
     7
100
AcDbLine
 10
-66.3336551827282
 20
169.7446677208613
 30
0.0
 11
-66.3336551827282
 21
174.7446677208613
 31
0.0
  0
LINE
  5
123
330
1F
100
AcDbEntity
  8
0
  6
Continuous
 62
     7
100
AcDbLine
 10
-66.3336551827282
 20
169.7446677208613
 30
0.0
 11
-58.58365518272819
 21
169.7446677208613
 31
0.0
  0
LINE
  5
124
330
1F
100
AcDbEntity
  8
0
  6
Continuous
 62
     7
100
AcDbLine
 10
-45.08365518272819
 20
169.7446677208613
 30
0.0
 11
-58.58365518272819
 21
169.7446677208613
 31
0.0
  0
LINE
  5
125
330
1F
100
AcDbEntity
  8
0
  6
Continuous
 62
     2
100
AcDbLine
 10
-58.58365518272819
 20
169.7446677208613
 30
0.0
 11
-58.58365518272819
 21
174.7446677208613
 31
0.0
  0
LINE
  5
126
330
1F
100
AcDbEntity
  8
0
  6
Continuous
 62
     2
100
AcDbLine
 10
-45.08365518272819
 20
169.7446677208613
 30
0.0
 11
-45.08365518272819
 21
174.7446677208613
 31
0.0
  0
LINE
  5
127
330
1F
100
AcDbEntity
  8
0
  6
Continuous
 62
     7
100
AcDbLine
 10
-45.08365518272819
 20
174.7446677208613
 30
0.0
 11
-58.58365518272819
 21
174.7446677208613
 31
0.0
  0
LINE
  5
128
330
1F
100
AcDbEntity
  8
0
  6
Continuous
 62
     7
100
AcDbLine
 10
-37.33365518272819
 20
169.7446677208613
 30
0.0
 11
-37.33365518272819
 21
174.7446677208613
 31
0.0
  0
LINE
  5
129
330
1F
100
AcDbEntity
  8
0
  6
Continuous
 62
     7
100
AcDbLine
 10
-34.53365518272818
 20
176.4446677208612
 30
0.0
 11
-34.73365518272817
 21
176.2446677208612
 31
0.0
  0
LINE
  5
12A
330
1F
100
AcDbEntity
  8
0
  6
Continuous
 62
     7
100
AcDbLine
 10
-38.53365518272818
 20
183.7446677208612
 30
0.0
 11
-38.53365518272818
 21
174.7446677208613
 31
0.0
  0
LINE
  5
12B
330
1F
100
AcDbEntity
  8
0
  6
Continuous
 62
     7
100
AcDbLine
 10
-37.33365518272819
 20
181.4946677208612
 30
0.0
 11
-37.33365518272819
 21
178.2446677208612
 31
0.0
  0
LINE
  5
12C
330
1F
100
AcDbEntity
  8
0
  6
Continuous
 62
     7
100
AcDbLine
 10
-38.53365518272818
 20
181.4946677208612
 30
0.0
 11
-37.33365518272819
 21
181.4946677208612
 31
0.0
  0
LINE
  5
12D
330
1F
100
AcDbEntity
  8
0
  6
Continuous
 62
     7
100
AcDbLine
 10
-34.53365518272818
 20
180.0446677208612
 30
0.0
 11
-34.53365518272818
 21
176.4446677208612
 31
0.0
  0
LINE
  5
12E
330
1F
100
AcDbEntity
  8
0
  6
Continuous
 62
     7
100
AcDbLine
 10
-34.53365518272818
 20
180.0446677208612
 30
0.0
 11
-34.73365518272817
 21
180.2446677208612
 31
0.0
  0
LINE
  5
12F
330
1F
100
AcDbEntity
  8
0
  6
Continuous
 62
     7
100
AcDbLine
 10
-37.33365518272819
 20
180.2446677208612
 30
0.0
 11
-34.73365518272817
 21
180.2446677208612
 31
0.0
  0
LINE
  5
130
330
1F
100
AcDbEntity
  8
0
  6
Continuous
 62
     7
100
AcDbLine
 10
-37.33365518272819
 20
176.2446677208612
 30
0.0
 11
-34.73365518272817
 21
176.2446677208612
 31
0.0
  0
LINE
  5
131
330
1F
100
AcDbEntity
  8
0
  6
Continuous
 62
     7
100
AcDbLine
 10
-45.08365518272819
 20
174.7446677208613
 30
0.0
 11
-37.33365518272819
 21
174.7446677208613
 31
0.0
  0
LINE
  5
132
330
1F
100
AcDbEntity
  8
0
  6
Continuous
 62
     7
100
AcDbLine
 10
-69.13365518272815
 20
180.0446677208612
 30
0.0
 11
-68.93365518272816
 21
180.2446677208612
 31
0.0
  0
LINE
  5
133
330
1F
100
AcDbEntity
  8
0
  6
Continuous
 62
     7
100
AcDbLine
 10
-54.83365518272819
 20
185.7446677208612
 30
0.0
 11
-54.83365518272819
 21
183.7446677208612
 31
0.0
  0
LINE
  5
134
330
1F
100
AcDbEntity
  8
0
  6
Continuous
 62
     7
100
AcDbLine
 10
-58.83365518272819
 20
186.7446677208612
 30
0.0
 11
-54.83365518272819
 21
186.7446677208612
 31
0.0
  0
LINE
  5
135
330
1F
100
AcDbEntity
  8
0
  6
Continuous
 62
     7
100
AcDbLine
 10
-54.83365518272819
 20
185.7446677208612
 30
0.0
 11
-54.83365518272819
 21
186.7446677208612
 31
0.0
  0
LINE
  5
136
330
1F
100
AcDbEntity
  8
0
  6
Continuous
 62
     7
100
AcDbLine
 10
-68.93365518272816
 20
180.2446677208612
 30
0.0
 11
-66.3336551827282
 21
180.2446677208612
 31
0.0
  0
LINE
  5
137
330
1F
100
AcDbEntity
  8
0
  6
Continuous
 62
     2
100
AcDbLine
 10
-44.83365518272819
 20
174.7446677208613
 30
0.0
 11
-44.83365518272819
 21
183.7446677208612
 31
0.0
  0
LINE
  5
138
330
1F
100
AcDbEntity
  8
0
  6
Continuous
 62
     2
100
AcDbLine
 10
-44.83365518272819
 20
183.7446677208612
 30
0.0
 11
-44.83365518272819
 21
186.7446677208612
 31
0.0
  0
LINE
  5
139
330
1F
100
AcDbEntity
  8
0
  6
Continuous
 62
     7
100
AcDbLine
 10
-45.08365518272819
 20
169.7446677208613
 30
0.0
 11
-37.33365518272819
 21
169.7446677208613
 31
0.0
  0
LINE
  5
13A
330
1F
100
AcDbEntity
  8
1
  6
Continuous
 62
     7
100
AcDbLine
 10
-189.0
 20
20.0
 30
0.0
 11
-5.0
 21
20.0
 31
0.0
  0
LINE
  5
13B
330
1F
100
AcDbEntity
  8
1
  6
Continuous
 62
     7
100
AcDbLine
 10
-189.0
 20
4.99999999999989
 30
0.0
 11
-5.0
 21
4.99999999999989
 31
0.0
  0
LINE
  5
13C
330
1F
100
AcDbEntity
  8
1
  6
Continuous
 62
     7
100
AcDbLine
 10
-163.9999999999999
 20
35.0
 30
0.0
 11
-163.9999999999999
 21
40.0
 31
0.0
  0
LINE
  5
13D
330
1F
100
AcDbEntity
  8
1
  6
Continuous
 62
     7
100
AcDbLine
 10
-182.0
 20
35.0
 30
0.0
 11
-182.0
 21
40.0
 31
0.0
  0
LINE
  5
13E
330
1F
100
AcDbEntity
  8
1
  6
Continuous
 62
     7
100
AcDbLine
 10
-189.0
 20
40.0
 30
0.0
 11
-5.0
 21
40.0
 31
0.0
  0
LINE
  5
13F
330
1F
100
AcDbEntity
  8
1
  6
Continuous
 62
     7
100
AcDbLine
 10
-163.9999999999999
 20
30.0
 30
0.0
 11
-163.9999999999999
 21
35.0
 31
0.0
  0
LINE
  5
140
330
1F
100
AcDbEntity
  8
1
  6
Continuous
 62
     7
100
AcDbLine
 10
-182.0
 20
30.0
 30
0.0
 11
-182.0
 21
35.0
 31
0.0
  0
LINE
  5
141
330
1F
100
AcDbEntity
  8
1
  6
Continuous
 62
     7
100
AcDbLine
 10
-189.0
 20
35.0
 30
0.0
 11
-5.0
 21
35.0
 31
0.0
  0
LINE
  5
142
330
1F
100
AcDbEntity
  8
1
  6
Continuous
 62
     7
100
AcDbLine
 10
-163.9999999999999
 20
25.0
 30
0.0
 11
-163.9999999999999
 21
30.0
 31
0.0
  0
LINE
  5
143
330
1F
100
AcDbEntity
  8
1
  6
Continuous
 62
     7
100
AcDbLine
 10
-182.0
 20
25.0
 30
0.0
 11
-182.0
 21
30.0
 31
0.0
  0
LINE
  5
144
330
1F
100
AcDbEntity
  8
1
  6
Continuous
 62
     7
100
AcDbLine
 10
-189.0
 20
30.0
 30
0.0
 11
-5.0
 21
30.0
 31
0.0
  0
LINE
  5
145
330
1F
100
AcDbEntity
  8
1
  6
Continuous
 62
     7
100
AcDbLine
 10
-163.9999999999999
 20
20.0
 30
0.0
 11
-163.9999999999999
 21
25.0
 31
0.0
  0
LINE
  5
146
330
1F
100
AcDbEntity
  8
1
  6
Continuous
 62
     7
100
AcDbLine
 10
-182.0
 20
20.0
 30
0.0
 11
-182.0
 21
25.0
 31
0.0
  0
LINE
  5
147
330
1F
100
AcDbEntity
  8
1
  6
Continuous
 62
     7
100
AcDbLine
 10
-189.0
 20
25.0
 30
0.0
 11
-5.0
 21
25.0
 31
0.0
  0
LINE
  5
148
102
{ACAD_REACTORS
330
21E
102
}
330
1F
100
AcDbEntity
  8
1
  6
Continuous
 62
     7
100
AcDbLine
 10
-14.15712516009421
 20
10.55800208038033
 30
0.0
 11
-15.49045849342747
 21
9.78877131114973
 31
0.0
  0
LINE
  5
149
102
{ACAD_REACTORS
330
21E
102
}
330
1F
100
AcDbEntity
  8
1
  6
Continuous
 62
     7
100
AcDbLine
 10
-15.32369931125732
 20
10.65463653264794
 30
0.0
 11
-14.49027346242053
 21
11.13545913774624
 31
0.0
  0
LINE
  5
14A
102
{ACAD_REACTORS
330
21E
102
}
330
1F
100
AcDbEntity
  8
1
  6
Continuous
 62
     7
100
AcDbLine
 10
-15.32369931125732
 20
12.16666666666663
 30
0.0
 11
-15.32369931125732
 21
10.65463653264794
 31
0.0
  0
LINE
  5
14B
102
{ACAD_REACTORS
330
21E
102
}
330
1F
100
AcDbEntity
  8
1
  6
Continuous
 62
     7
100
AcDbLine
 10
-14.32369931125732
 20
12.16666666666663
 30
0.0
 11
-15.32369931125732
 21
12.16666666666663
 31
0.0
  0
LINE
  5
14C
102
{ACAD_REACTORS
330
21E
102
}
330
1F
100
AcDbEntity
  8
1
  6
Continuous
 62
     7
100
AcDbLine
 10
-15.32369931125732
 20
12.83333333333326
 30
0.0
 11
-14.32369931125732
 21
12.83333333333326
 31
0.0
  0
LINE
  5
14D
102
{ACAD_REACTORS
330
21E
102
}
330
1F
100
AcDbEntity
  8
1
  6
Continuous
 62
     7
100
AcDbLine
 10
-15.32369931125732
 20
14.34536346735194
 30
0.0
 11
-15.32369931125732
 21
12.83333333333326
 31
0.0
  0
LINE
  5
14E
102
{ACAD_REACTORS
330
21E
102
}
330
1F
100
AcDbEntity
  8
1
  6
Continuous
 62
     7
100
AcDbLine
 10
-14.49027346242053
 20
13.86454086225376
 30
0.0
 11
-15.32369931125732
 21
14.34536346735194
 31
0.0
  0
LINE
  5
14F
102
{ACAD_REACTORS
330
21E
102
}
330
1F
100
AcDbEntity
  8
1
  6
Continuous
 62
     7
100
AcDbLine
 10
-15.49045849342747
 20
15.21122868885027
 30
0.0
 11
-14.15712516009421
 21
14.44199791961944
 31
0.0
  0
LINE
  5
150
102
{ACAD_REACTORS
330
21F
102
}
330
1F
100
AcDbEntity
  8
1
  6
Continuous
 62
     7
100
AcDbLine
 10
-22.65703264459069
 20
10.84673060906323
 30
0.0
 11
-22.65703264459069
 21
14.15326939093666
 31
0.0
  0
LINE
  5
151
102
{ACAD_REACTORS
330
21F
102
}
330
1F
100
AcDbEntity
  8
1
  6
Continuous
 62
     7
100
AcDbLine
 10
-21.99036597792406
 20
11.0392519172633
 30
0.0
 11
-21.99036597792406
 21
10.84673060906323
 31
0.0
  0
LINE
  5
152
102
{ACAD_REACTORS
330
21F
102
}
330
1F
100
AcDbEntity
  8
1
  6
Continuous
 62
     7
100
AcDbLine
 10
-21.99036597792406
 20
14.15326939093666
 30
0.0
 11
-21.99036597792406
 21
11.0392519172633
 31
0.0
  0
LINE
  5
153
102
{ACAD_REACTORS
330
220
102
}
330
1F
100
AcDbEntity
  8
1
  6
Continuous
 62
     7
100
AcDbLine
 10
-18.8236067957539
 20
8.44261746499581
 30
0.0
 11
-20.99018094691704
 21
9.69256409066691
 31
0.0
  0
LINE
  5
154
102
{ACAD_REACTORS
330
220
102
}
330
1F
100
AcDbEntity
  8
1
  6
Continuous
 62
     7
100
AcDbLine
 10
-20.65703264459069
 20
10.2700211480327
 30
0.0
 11
-18.49045849342747
 21
9.0200745223616
 31
0.0
  0
LINE
  5
155
102
{ACAD_REACTORS
330
220
102
}
330
1F
100
AcDbEntity
  8
1
  6
Continuous
 62
     7
100
AcDbLine
 10
-20.65703264459069
 20
14.92250016016737
 30
0.0
 11
-20.65703264459069
 21
10.2700211480327
 31
0.0
  0
LINE
  5
156
102
{ACAD_REACTORS
330
220
102
}
330
1F
100
AcDbEntity
  8
1
  6
Continuous
 62
     7
100
AcDbLine
 10
-21.32369931125732
 20
10.27002114803258
 30
0.0
 11
-21.32369931125732
 21
14.92250016016737
 31
0.0
  0
LINE
  5
157
102
{ACAD_REACTORS
330
221
102
}
330
1F
100
AcDbEntity
  8
1
  6
Continuous
 62
     7
100
AcDbLine
 10
-17.15146632821404
 20
15.86370041827229
 30
0.0
 11
-18.32369931125732
 21
13.83333333333326
 31
0.0
  0
LINE
  5
158
102
{ACAD_REACTORS
330
221
102
}
330
1F
100
AcDbEntity
  8
1
  6
Continuous
 62
     7
100
AcDbLine
 10
-16.65703264459069
 20
9.3082690706018
 30
0.0
 11
-16.65703264459069
 21
15.73121731203457
 31
0.0
  0
LINE
  5
159
102
{ACAD_REACTORS
330
221
102
}
330
1F
100
AcDbEntity
  8
1
  6
Continuous
 62
     7
100
AcDbLine
 10
-17.32369931125732
 20
12.5
 30
0.0
 11
-17.32369931125732
 21
9.3082690706018
 31
0.0
  0
LINE
  5
15A
102
{ACAD_REACTORS
330
221
102
}
330
1F
100
AcDbEntity
  8
1
  6
Continuous
 62
     7
100
AcDbLine
 10
-19.32369931125732
 20
10.84758507263291
 30
0.0
 11
-19.32369931125732
 21
12.5
 31
0.0
  0
LINE
  5
15B
102
{ACAD_REACTORS
330
221
102
}
330
1F
100
AcDbEntity
  8
1
  6
Continuous
 62
     7
100
AcDbLine
 10
-19.99036597792406
 20
12.5
 30
0.0
 11
-19.99036597792406
 21
10.84758507263291
 31
0.0
  0
LINE
  5
15C
102
{ACAD_REACTORS
330
221
102
}
330
1F
100
AcDbEntity
  8
1
  6
Continuous
 62
     7
100
AcDbLine
 10
-19.49593229430059
 20
15.86370041827229
 30
0.0
 11
-18.32369931125732
 21
13.83333333333326
 31
0.0
  0
LINE
  5
15D
102
{ACAD_REACTORS
330
221
102
}
330
1F
100
AcDbEntity
  8
1
  6
Continuous
 62
     7
100
AcDbLine
 10
-19.99036597792406
 20
12.5
 30
0.0
 11
-19.99036597792406
 21
15.73121731203457
 31
0.0
  0
LINE
  5
15E
330
1F
100
AcDbEntity
  8
1
  6
Continuous
 62
     7
100
AcDbLine
 10
-18.32369931125732
 20
7.5
 30
0.0
 11
-26.74013458639888
 21
12.35563573565855
 31
0.0
  0
LINE
  5
15F
330
1F
100
AcDbEntity
  8
1
  6
Continuous
 62
     7
100
AcDbLine
 10
-9.90726403611586
 20
12.35563573565855
 30
0.0
 11
-18.32369931125732
 21
7.5
 31
0.0
  0
LINE
  5
160
330
1F
100
AcDbEntity
  8
1
  6
Continuous
 62
     7
100
AcDbLine
 10
-18.32369931125732
 20
17.5
 30
0.0
 11
-9.90726403611586
 21
12.64436426434133
 31
0.0
  0
LINE
  5
161
330
1F
100
AcDbEntity
  8
1
  6
Continuous
 62
     7
100
AcDbLine
 10
-26.74013458639888
 20
12.64436426434133
 30
0.0
 11
-18.32369931125732
 21
17.5
 31
0.0
  0
LINE
  5
162
102
{ACAD_REACTORS
330
221
102
}
330
1F
100
AcDbEntity
  8
1
  6
Continuous
 62
     7
100
AcDbLine
 10
-19.32369931125732
 20
14.23205080756884
 30
0.0
 11
-19.32369931125732
 21
12.5
 31
0.0
  0
LINE
  5
163
102
{ACAD_REACTORS
330
221
102
}
330
1F
100
AcDbEntity
  8
1
  6
Continuous
 62
     7
100
AcDbLine
 10
-18.46803687855481
 20
12.75
 30
0.0
 11
-19.32369931125732
 21
14.23205080756884
 31
0.0
  0
LINE
  5
164
102
{ACAD_REACTORS
330
221
102
}
330
1F
100
AcDbEntity
  8
1
  6
Continuous
 62
     7
100
AcDbLine
 10
-17.32369931125732
 20
14.23205080756884
 30
0.0
 11
-18.17936174395993
 21
12.75
 31
0.0
  0
LINE
  5
165
102
{ACAD_REACTORS
330
221
102
}
330
1F
100
AcDbEntity
  8
1
  6
Continuous
 62
     7
100
AcDbLine
 10
-17.32369931125732
 20
12.5
 30
0.0
 11
-17.32369931125732
 21
14.23205080756884
 31
0.0
  0
LINE
  5
166
102
{ACAD_REACTORS
330
21E
102
}
330
1F
100
AcDbEntity
  8
1
  6
Continuous
 62
     7
100
AcDbLine
 10
-15.99036597792394
 20
10.07749983983263
 30
0.0
 11
-15.99036597792394
 21
14.92250016016737
 31
0.0
  0
LINE
  5
167
330
1F
100
AcDbEntity
  8
1
  6
Continuous
 62
     7
100
AcDbLine
 10
-189.0
 20
292.0000000000001
 30
0.0
 11
-189.0
 21
4.99999999999989
 31
0.0
  0
LINE
  5
168
330
1F
100
AcDbEntity
  8
1
  6
Continuous
 62
     7
100
AcDbLine
 10
-5.0
 20
292.0000000000001
 30
0.0
 11
-189.0
 21
292.0000000000001
 31
0.0
  0
LINE
  5
169
330
1F
100
AcDbEntity
  8
1
  6
Continuous
 62
     7
100
AcDbLine
 10
-5.0
 20
4.99999999999989
 30
0.0
 11
-5.0
 21
292.0000000000001
 31
0.0
  0
LINE
  5
16A
330
1F
100
AcDbEntity
  8
1
  6
Continuous
 62
     7
100
AcDbLine
 10
0.0
 20
297.0000000000001
 30
0.0
 11
-210.0000000000001
 21
297.0000000000001
 31
0.0
  0
LINE
  5
16B
330
1F
100
AcDbEntity
  8
1
  6
Continuous
 62
     7
100
AcDbLine
 10
-210.0000000000001
 20
297.0000000000001
 30
0.0
 11
-210.0000000000001
 21
0.0
 31
0.0
  0
LINE
  5
16C
330
1F
100
AcDbEntity
  8
1
  6
Continuous
 62
     7
100
AcDbLine
 10
-210.0000000000001
 20
0.0
 30
0.0
 11
0.0
 21
0.0
 31
0.0
  0
LINE
  5
16D
330
1F
100
AcDbEntity
  8
1
  6
Continuous
 62
     7
100
AcDbLine
 10
0.0
 20
0.0
 30
0.0
 11
0.0
 21
297.0000000000001
 31
0.0
  0
LINE
  5
16E
330
1F
100
AcDbEntity
  8
1
  6
Continuous
 62
     7
100
AcDbLine
 10
-210.0000000000001
 20
148.4999999999998
 30
0.0
 11
-195.0000000000001
 21
148.4999999999998
 31
0.0
  0
LINE
  5
16F
330
1F
100
AcDbEntity
  8
1
  6
Continuous
 62
     7
100
AcDbLine
 10
-189.0
 20
9.99999999999986
 30
0.0
 11
-159.0
 21
9.99999999999986
 31
0.0
  0
LINE
  5
170
330
1F
100
AcDbEntity
  8
1
  6
Continuous
 62
     7
100
AcDbLine
 10
-159.0
 20
20.0
 30
0.0
 11
-159.0
 21
5.0
 31
0.0
  0
LINE
  5
171
330
1F
100
AcDbEntity
  8
1
  6
Continuous
 62
     7
100
AcDbLine
 10
-31.64739862251466
 20
20.0
 30
0.0
 11
-31.64739862251466
 21
5.0
 31
0.0
  0
LINE
  5
172
330
1F
100
AcDbEntity
  8
1
  6
Continuous
 62
     7
100
AcDbLine
 10
-49.00000000000003
 20
20.0
 30
0.0
 11
-49.00000000000003
 21
5.0
 31
0.0
  0
LINE
  5
173
330
1F
100
AcDbEntity
  8
1
  6
Continuous
 62
     7
100
AcDbLine
 10
-189.0
 20
20.0
 30
0.0
 11
-189.0
 21
4.99999999999989
 31
0.0
  0
LINE
  5
174
330
1F
100
AcDbEntity
  8
1
  6
Continuous
 62
     7
100
AcDbLine
 10
-189.0
 20
14.99999999999989
 30
0.0
 11
-159.0
 21
14.99999999999989
 31
0.0
  0
ARC
  5
175
330
1F
100
AcDbEntity
  8
0
  6
Continuous
 62
     7
100
AcDbCircle
 10
-125.3308249258621
 20
178.2446677208613
 30
0.0
 40
3.25
100
AcDbArc
 50
0.0
 51
180.0
  0
ARC
  5
176
330
1F
100
AcDbEntity
  8
0
  6
Continuous
 62
     7
100
AcDbCircle
 10
-147.1308249258621
 20
185.7446677208613
 30
0.0
 40
1.0
100
AcDbArc
 50
90.0
 51
180.0
  0
ARC
  5
177
330
1F
100
AcDbEntity
  8
0
  6
Continuous
 62
     7
100
AcDbCircle
 10
-145.1308249258621
 20
183.7446677208613
 30
0.0
 40
3.0
100
AcDbArc
 50
90.0
 51
180.0
  0
ARC
  5
178
330
1F
100
AcDbEntity
  8
0
  6
Continuous
 62
     7
100
AcDbCircle
 10
-105.5308249258621
 20
183.7446677208613
 30
0.0
 40
3.0
100
AcDbArc
 50
0.0
 51
90.0
  0
ARC
  5
179
330
1F
100
AcDbEntity
  8
0
  6
Continuous
 62
     7
100
AcDbCircle
 10
-109.0808249258621
 20
118.3946674284021
 30
0.0
 40
7.75
100
AcDbArc
 50
0.0
 51
90.0
  0
ARC
  5
17A
330
1F
100
AcDbEntity
  8
0
  6
Continuous
 62
     7
100
AcDbCircle
 10
-141.5808249258621
 20
118.3946674284021
 30
0.0
 40
7.75
100
AcDbArc
 50
90.0
 51
180.0
  0
ARC
  5
17B
330
1F
100
AcDbEntity
  8
0
  6
Continuous
 62
     7
100
AcDbCircle
 10
-141.8308249258621
 20
118.6446674284021
 30
0.0
 40
6.299999999999997
100
AcDbArc
 50
90.0
 51
180.0
  0
ARC
  5
17C
330
1F
100
AcDbEntity
  8
0
  6
Continuous
 62
     2
100
AcDbCircle
 10
-141.8308249258621
 20
118.6446674284021
 30
0.0
 40
3.299999999999997
100
AcDbArc
 50
90.0
 51
180.0
  0
ARC
  5
17D
330
1F
100
AcDbEntity
  8
0
  6
Continuous
 62
     7
100
AcDbCircle
 10
-121.1642508260821
 20
111.6446674284021
 30
0.0
 40
0.0833333333332613
100
AcDbArc
 50
299.9816393687927
 51
60.01836063120731
  0
ARC
  5
17E
330
1F
100
AcDbEntity
  8
0
  6
Continuous
 62
     7
100
AcDbCircle
 10
-123.3308249258621
 20
110.8180327329337
 30
0.0
 40
0.1666666666666998
100
AcDbArc
 50
180.0
 51
0.0
  0
ARC
  5
17F
330
1F
100
AcDbEntity
  8
0
  6
Continuous
 62
     7
100
AcDbCircle
 10
-126.6641582591954
 20
110.4334173483184
 30
0.0
 40
0.1666666666667276
100
AcDbArc
 50
240.0183606311634
 51
0.0
  0
ARC
  5
180
330
1F
100
AcDbEntity
  8
0
  6
Continuous
 62
     7
100
AcDbCircle
 10
-127.3308249258621
 20
111.6446674284021
 30
0.0
 40
0.1666666666666998
100
AcDbArc
 50
90.0
 51
270.0
  0
ARC
  5
181
330
1F
100
AcDbEntity
  8
0
  6
Continuous
 62
     7
100
AcDbCircle
 10
-127.3308249258621
 20
112.4713021238704
 30
0.0
 40
0.1666666666666779
100
AcDbArc
 50
119.981639368807
 51
299.9816393688579
  0
ARC
  5
182
330
1F
100
AcDbEntity
  8
0
  6
Continuous
 62
     7
100
AcDbCircle
 10
-127.3308249258621
 20
110.8180327329337
 30
0.0
 40
0.1666666666667347
100
AcDbArc
 50
60.01836063115913
 51
240.0183606311759
  0
ARC
  5
183
330
1F
100
AcDbEntity
  8
0
  6
Continuous
 62
     7
100
AcDbCircle
 10
-129.497399025642
 20
111.6446674284021
 30
0.0
 40
0.0833333333333039
100
AcDbArc
 50
119.9816393688435
 51
240.0183606311566
  0
ARC
  5
184
330
1F
100
AcDbEntity
  8
0
  6
Continuous
 62
     7
100
AcDbCircle
 10
-126.6641582591954
 20
112.8559175084858
 30
0.0
 40
0.1666666666666003
100
AcDbArc
 50
0.0
 51
119.9816393688687
  0
ARC
  5
185
330
1F
100
AcDbEntity
  8
0
  6
Continuous
 62
     7
100
AcDbCircle
 10
-124.1641582591954
 20
112.7596568543858
 30
0.0
 40
0.3333333333333002
100
AcDbArc
 50
0.0
 51
60.01836063116751
  0
ARC
  5
186
330
1F
100
AcDbEntity
  8
0
  6
Continuous
 62
     7
100
AcDbCircle
 10
-125.1641582591954
 20
113.5289944315627
 30
0.0
 40
0.1666666666667347
100
AcDbArc
 50
60.01836063115913
 51
240.0183606311313
  0
ARC
  5
187
330
1F
100
AcDbEntity
  8
0
  6
Continuous
 62
     7
100
AcDbCircle
 10
-123.9974915925288
 20
110.4334173483184
 30
0.0
 40
0.1666666666666003
100
AcDbArc
 50
180.0
 51
0.0
  0
ARC
  5
188
330
1F
100
AcDbEntity
  8
0
  6
Continuous
 62
     7
100
AcDbCircle
 10
-125.3308249258621
 20
111.4780007617354
 30
0.0
 40
0.0833333333333526
100
AcDbArc
 50
30.00000000001866
 51
149.9999999999423
  0
ARC
  5
189
330
1F
100
AcDbEntity
  8
0
  6
Continuous
 62
     7
100
AcDbCircle
 10
-124.6299746987664
 20
110.0290587723848
 30
0.0
 40
0.1324831062376499
100
AcDbArc
 50
209.9999999999877
 51
0.0
  0
ARC
  5
18A
330
1F
100
AcDbEntity
  8
0
  6
Continuous
 62
     7
100
AcDbCircle
 10
-124.6641582591954
 20
112.4708748920856
 30
0.0
 40
0.1666666666666003
100
AcDbArc
 50
0.0
 51
180.0
  0
ARC
  5
18B
330
1F
100
AcDbEntity
  8
0
  6
Continuous
 62
     7
100
AcDbCircle
 10
-125.9974915925288
 20
113.2405328931012
 30
0.0
 40
0.1666666666666998
100
AcDbArc
 50
0.0
 51
180.0
  0
ARC
  5
18C
330
1F
100
AcDbEntity
  8
0
  6
Continuous
 62
     7
100
AcDbCircle
 10
-126.0316751529577
 20
110.0290587723848
 30
0.0
 40
0.1324831062377001
100
AcDbArc
 50
180.0
 51
329.9999999999724
  0
ARC
  5
18D
330
1F
100
AcDbEntity
  8
0
  6
Continuous
 62
     7
100
AcDbCircle
 10
-123.3308249258621
 20
112.4713021238704
 30
0.0
 40
0.1666666666666998
100
AcDbArc
 50
0.0
 51
180.0
  0
ARC
  5
18E
330
1F
100
AcDbEntity
  8
0
  6
Continuous
 62
     7
100
AcDbCircle
 10
-141.5808249258621
 20
104.8946674284021
 30
0.0
 40
7.75
100
AcDbArc
 50
180.0
 51
270.0
  0
ARC
  5
18F
330
1F
100
AcDbEntity
  8
0
  6
Continuous
 62
     7
100
AcDbCircle
 10
-141.8308249258621
 20
104.6446674284021
 30
0.0
 40
6.300000000000011
100
AcDbArc
 50
180.0
 51
270.0
  0
ARC
  5
190
330
1F
100
AcDbEntity
  8
0
  6
Continuous
 62
     2
100
AcDbCircle
 10
-141.8308249258621
 20
104.6446674284021
 30
0.0
 40
3.300000000000011
100
AcDbArc
 50
180.0
 51
270.0
  0
ARC
  5
191
330
1F
100
AcDbEntity
  8
0
  6
Continuous
 62
     7
100
AcDbCircle
 10
-109.0808249258621
 20
104.8946674284021
 30
0.0
 40
7.75
100
AcDbArc
 50
270.0
 51
0.0
  0
ARC
  5
192
330
1F
100
AcDbEntity
  8
0
  6
Continuous
 62
     7
100
AcDbCircle
 10
-108.8308249258621
 20
104.6446674284021
 30
0.0
 40
6.300000000000011
100
AcDbArc
 50
270.0
 51
0.0
  0
ARC
  5
193
330
1F
100
AcDbEntity
  8
0
  6
Continuous
 62
     2
100
AcDbCircle
 10
-108.8308249258621
 20
104.6446674284021
 30
0.0
 40
3.299999999999997
100
AcDbArc
 50
270.0
 51
0.0
  0
ARC
  5
194
330
1F
100
AcDbEntity
  8
0
  6
Continuous
 62
     7
100
AcDbCircle
 10
-108.8308249258621
 20
118.6446674284021
 30
0.0
 40
6.299999999999997
100
AcDbArc
 50
0.0
 51
90.0
  0
ARC
  5
195
330
1F
100
AcDbEntity
  8
0
  6
Continuous
 62
     2
100
AcDbCircle
 10
-108.8308249258621
 20
118.6446674284021
 30
0.0
 40
3.299999999999997
100
AcDbArc
 50
0.0
 51
90.0
  0
ARC
  5
196
330
1F
100
AcDbEntity
  8
0
  6
Continuous
 62
     7
100
AcDbCircle
 10
-62.13365518272815
 20
183.7446677208612
 30
0.0
 40
3.0
100
AcDbArc
 50
90.0
 51
180.0
  0
ARC
  5
197
330
1F
100
AcDbEntity
  8
0
  6
Continuous
 62
     7
100
AcDbCircle
 10
-41.53365518272818
 20
183.7446677208612
 30
0.0
 40
3.0
100
AcDbArc
 50
0.0
 51
90.0
  0
ARC
  5
198
102
{ACAD_REACTORS
330
21E
102
}
330
1F
100
AcDbEntity
  8
1
  6
Continuous
 62
     7
100
AcDbCircle
 10
-14.32369931125732
 20
10.84673060906323
 30
0.0
 40
0.3333333333333198
100
AcDbArc
 50
299.9816393688342
 51
119.9816393688397
  0
ARC
  5
199
102
{ACAD_REACTORS
330
21E
102
}
330
1F
100
AcDbEntity
  8
1
  6
Continuous
 62
     7
100
AcDbCircle
 10
-14.32369931125732
 20
12.5
 30
0.0
 40
0.3333333333333695
100
AcDbArc
 50
270.0
 51
90.0
  0
ARC
  5
19A
102
{ACAD_REACTORS
330
21E
102
}
330
1F
100
AcDbEntity
  8
1
  6
Continuous
 62
     7
100
AcDbCircle
 10
-14.32369931125732
 20
14.15326939093666
 30
0.0
 40
0.333333333333372
100
AcDbArc
 50
240.0183606311508
 51
60.01836063115558
  0
ARC
  5
19B
102
{ACAD_REACTORS
330
21F
102
}
330
1F
100
AcDbEntity
  8
1
  6
Continuous
 62
     7
100
AcDbCircle
 10
-22.32369931125732
 20
10.84673060906323
 30
0.0
 40
0.3333333333333677
100
AcDbArc
 50
180.0
 51
0.0
  0
ARC
  5
19C
102
{ACAD_REACTORS
330
21F
102
}
330
1F
100
AcDbEntity
  8
1
  6
Continuous
 62
     7
100
AcDbCircle
 10
-22.32369931125732
 20
14.15326939093666
 30
0.0
 40
0.3333333333332611
100
AcDbArc
 50
0.0
 51
180.0
  0
ARC
  5
19D
102
{ACAD_REACTORS
330
220
102
}
330
1F
100
AcDbEntity
  8
1
  6
Continuous
 62
     7
100
AcDbCircle
 10
-18.65703264459069
 20
8.7313459936787
 30
0.0
 40
0.3333333333333673
100
AcDbArc
 50
240.0183606311504
 51
60.01836063114937
  0
ARC
  5
19E
102
{ACAD_REACTORS
330
220
102
}
330
1F
100
AcDbEntity
  8
1
  6
Continuous
 62
     7
100
AcDbCircle
 10
-20.99036597792406
 20
14.92250016016737
 30
0.0
 40
0.3333333333333712
100
AcDbArc
 50
0.0
 51
180.0
  0
ARC
  5
19F
102
{ACAD_REACTORS
330
221
102
}
330
1F
100
AcDbEntity
  8
1
  6
Continuous
 62
     7
100
AcDbCircle
 10
-16.921998857066
 20
15.73121731203457
 30
0.0
 40
0.2649662124753114
100
AcDbArc
 50
0.0
 51
149.9999999999743
  0
ARC
  5
1A0
102
{ACAD_REACTORS
330
221
102
}
330
1F
100
AcDbEntity
  8
1
  6
Continuous
 62
     7
100
AcDbCircle
 10
-16.99036597792394
 20
9.3082690706018
 30
0.0
 40
0.3333333333333819
100
AcDbArc
 50
180.0
 51
0.0
  0
ARC
  5
1A1
102
{ACAD_REACTORS
330
221
102
}
330
1F
100
AcDbEntity
  8
1
  6
Continuous
 62
     7
100
AcDbCircle
 10
-19.65703264459069
 20
10.84758507263291
 30
0.0
 40
0.3333333333333712
100
AcDbArc
 50
180.0
 51
0.0
  0
ARC
  5
1A2
102
{ACAD_REACTORS
330
221
102
}
330
1F
100
AcDbEntity
  8
1
  6
Continuous
 62
     7
100
AcDbCircle
 10
-19.72539976544874
 20
15.73121731203457
 30
0.0
 40
0.2649662124753284
100
AcDbArc
 50
30.00000000001384
 51
180.0
  0
CIRCLE
  5
1A3
330
1F
100
AcDbEntity
  8
0
  6
Continuous
 62
     7
100
AcDbCircle
 10
-125.3308249258621
 20
178.2446677208613
 30
0.0
 40
2.0
  0
CIRCLE
  5
1A4
330
1F
100
AcDbEntity
  8
0
  6
Continuous
 62
     7
100
AcDbCircle
 10
-51.83365518272819
 20
184.5446677208612
 30
0.0
 40
1.0
  0
SPLINE
  5
1A5
330
1F
100
AcDbEntity
  8
0
  6
Continuous
 62
     2
100
AcDbSpline
210
0.0
220
0.0
230
1.0
 70
     8
 71
     3
 72
    11
 73
     7
 74
     5
 42
0.000000001
 43
0.0000000001
 44
0.00000001
 40
0.0
 40
0.0
 40
0.0
 40
0.0
 40
0.3885143358880123
 40
0.7448479340991981
 40
1.075391752901303
 40
1.391392288616541
 40
1.391392288616541
 40
1.391392288616541
 40
1.391392288616541
 10
-60.84786051586457
 20
272.3893690464415
 30
0.0
 10
-60.96661402167558
 20
272.4421931371914
 30
0.0
 10
-61.19428465635848
 20
272.5434658727172
 30
0.0
 10
-61.55003132359028
 20
272.6060141677727
 30
0.0
 10
-61.88964384019751
 20
272.5946358244997
 30
0.0
 10
-62.09105901857041
 20
272.5139902075348
 30
0.0
 10
-62.18950130236453
 20
272.474574408088
 30
0.0
 11
-60.84786051586457
 21
272.3893690464415
 31
0.0
 11
-61.2092168746604
 21
272.532074936562
 31
0.0
 11
-61.56001042578987
 21
272.5946650255109
 31
0.0
 11
-61.88998706456672
 21
272.5753095123239
 31
0.0
 11
-62.18950130236453
 21
272.474574408088
 31
0.0
  0
SPLINE
  5
1A6
330
1F
100
AcDbEntity
  8
0
  6
Continuous
 62
     2
100
AcDbSpline
210
0.0
220
0.0
230
1.0
 70
     8
 71
     3
 72
    13
 73
     9
 74
     7
 42
0.000000001
 43
0.0000000001
 44
0.00000001
 40
0.0
 40
0.0
 40
0.0
 40
0.0
 40
0.6259428759471534
 40
1.142708414495934
 40
1.584315192267788
 40
2.025921970039587
 40
2.542687508588351
 40
3.168630384535406
 40
3.168630384535406
 40
3.168630384535406
 40
3.168630384535406
 10
-60.84786051586457
 20
270.0559166685259
 30
0.0
 10
-61.03014993153165
 20
270.1594171349423
 30
0.0
 10
-61.36293372511605
 20
270.3483654638674
 30
0.0
 10
-61.72064671237516
 20
270.7546153675477
 30
0.0
 10
-61.85761100871414
 20
271.2226428574838
 30
0.0
 10
-61.72064671237516
 20
271.6906703474198
 30
0.0
 10
-61.36293372511602
 20
272.0969202511001
 30
0.0
 10
-61.03014993153165
 20
272.2858685800252
 30
0.0
 10
-60.84786051586457
 20
272.3893690464415
 30
0.0
 11
-60.84786051586457
 21
270.0559166685259
 31
0.0
 11
-61.37229120850934
 21
270.3976430774335
 31
0.0
 11
-61.70196336470292
 21
270.7955914330647
 31
0.0
 11
-61.81440725814995
 21
271.2226428574838
 31
0.0
 11
-61.70196336470292
 21
271.649694281903
 31
0.0
 11
-61.3722912085093
 21
272.047642637534
 31
0.0
 11
-60.84786051586457
 21
272.3893690464415
 31
0.0
  0
SPLINE
  5
1A7
330
1F
100
AcDbEntity
  8
0
  6
Continuous
 62
     2
100
AcDbSpline
210
0.0
220
0.0
230
1.0
 70
     8
 71
     3
 72
    11
 73
     7
 74
     5
 42
0.000000001
 43
0.0000000001
 44
0.00000001
 40
0.0
 40
0.0
 40
0.0
 40
0.0
 40
0.3885143358879914
 40
0.7448479340991574
 40
1.07539175290124
 40
1.391392288616272
 40
1.391392288616272
 40
1.391392288616272
 40
1.391392288616272
 10
-46.28146082342164
 20
277.3391165147475
 30
0.0
 10
-46.16270731761061
 20
277.3919406054974
 30
0.0
 10
-45.93503668292774
 20
277.4932133410231
 30
0.0
 10
-45.57929001569592
 20
277.5557616360786
 30
0.0
 10
-45.23967749908878
 20
277.5443832928054
 30
0.0
 10
-45.03826232071599
 20
277.4637376758406
 30
0.0
 10
-44.9398200369219
 20
277.4243218763938
 30
0.0
 11
-46.28146082342164
 21
277.3391165147475
 31
0.0
 11
-45.92010446462581
 21
277.4818224048679
 31
0.0
 11
-45.56931091349634
 21
277.5444124938168
 31
0.0
 11
-45.23933427471951
 21
277.5250569806296
 31
0.0
 11
-44.9398200369219
 21
277.4243218763938
 31
0.0
  0
SPLINE
  5
1A8
330
1F
100
AcDbEntity
  8
0
  6
Continuous
 62
     7
100
AcDbSpline
210
0.0
220
0.0
230
1.0
 70
     8
 71
     3
 72
    19
 73
    15
 74
    13
 42
0.000000001
 43
0.0000000001
 44
0.00000001
 40
0.0
 40
0.0
 40
0.0
 40
0.0
 40
0.8781634861215711
 40
1.759718916506079
 40
2.771918015176507
 40
3.791965753229296
 40
4.270719866358757
 40
4.831223591118623
 40
5.29591780220422
 40
5.824987622698986
 40
6.262973944373766
 40
6.744928558727714
 40
7.165501221010198
 40
7.585512956162254
 40
7.585512956162254
 40
7.585512956162254
 40
7.585512956162254
 10
-52.29000636575279
 20
277.4243218763938
 30
0.0
 10
-52.02274472399028
 20
277.544690662661
 30
0.0
 10
-51.4871891252133
 20
277.7858931513041
 30
0.0
 10
-50.59274122479138
 20
278.0300911527176
 30
0.0
 10
-49.63308973872738
 20
278.1889174326235
 30
0.0
 10
-48.79528521661877
 20
278.2327202979573
 30
0.0
 10
-48.10888029759423
 20
278.2156978656932
 30
0.0
 10
-47.6088080961112
 20
278.1759033060169
 30
0.0
 10
-47.0952056330302
 20
278.1063393476397
 30
0.0
 10
-46.62628103043154
 20
278.0159392934878
 30
0.0
 10
-46.15778254708997
 20
277.8974648604408
 30
0.0
 10
-45.73165283616935
 20
277.7622212954424
 30
0.0
 10
-45.3193586021162
 20
277.6049855249761
 30
0.0
 10
-45.06627659556242
 20
277.48451630039
 30
0.0
 10
-44.9398200369219
 20
277.4243218763938
 30
0.0
 11
-52.29000636575279
 21
277.4243218763938
 31
0.0
 11
-51.4801840322253
 21
277.7639671264331
 31
0.0
 11
-50.63216252212669
 21
278.0047979683291
 31
0.0
 11
-49.63350342094812
 21
278.1698040599373
 31
0.0
 11
-48.61491320133723
 21
278.2243141144364
 31
0.0
 11
-48.1363083290905
 21
278.2123610045934
 31
0.0
 11
-47.57758183928058
 21
278.16776128382
 31
0.0
 11
-47.11711462000922
 21
278.1052260909904
 31
0.0
 11
-46.597663880548
 21
278.0047979683291
 31
0.0
 11
-46.17313238619971
 21
277.8970713169639
 31
0.0
 11
-45.71372087640998
 21
277.7513959329525
 31
0.0
 11
-45.32142810951409
 21
277.5997788147817
 31
0.0
 11
-44.9398200369219
 21
277.4243218763938
 31
0.0
  0
SPLINE
  5
1A9
330
1F
100
AcDbEntity
  8
0
  6
Continuous
 62
     2
100
AcDbSpline
210
0.0
220
0.0
230
1.0
 70
     8
 71
     3
 72
    13
 73
     9
 74
     7
 42
0.000000001
 43
0.0000000001
 44
0.00000001
 40
0.0
 40
0.0
 40
0.0
 40
0.0
 40
0.73202776015289
 40
1.544814636070141
 40
2.400765908032371
 40
3.256717179994573
 40
4.069504055911831
 40
4.80153181606476
 40
4.80153181606476
 40
4.80153181606476
 40
4.80153181606476
 10
-50.94836557925294
 20
277.3391165147475
 30
0.0
 10
-50.72308312122618
 20
277.4344007338204
 30
0.0
 10
-50.24766448095873
 20
277.6354811488933
 30
0.0
 10
-49.456188228903
 20
277.7843816046705
 30
0.0
 10
-48.61491320133731
 20
277.8418855817542
 30
0.0
 10
-47.77363817377161
 20
277.7843816046705
 30
0.0
 10
-46.9821619217159
 20
277.6354811488933
 30
0.0
 10
-46.50674328144841
 20
277.4344007338203
 30
0.0
 10
-46.28146082342164
 20
277.3391165147475
 30
0.0
 11
-50.94836557925294
 21
277.3391165147475
 31
0.0
 11
-50.26491276143777
 21
277.6013318610698
 31
0.0
 11
-49.46901605017558
 21
277.7661679391666
 31
0.0
 11
-48.6149132013373
 21
277.8223898858901
 31
0.0
 11
-47.76081035249905
 21
277.7661679391666
 31
0.0
 11
-46.96491364123685
 21
277.6013318610698
 31
0.0
 11
-46.28146082342164
 21
277.3391165147475
 31
0.0
  0
SPLINE
  5
1AA
330
1F
100
AcDbEntity
  8
0
  6
Continuous
 62
     7
100
AcDbSpline
210
0.0
220
0.0
230
1.0
 70
     8
 71
     3
 72
    15
 73
    11
 74
     9
 42
0.000000001
 43
0.0000000001
 44
0.00000001
 40
0.0
 40
0.0
 40
0.0
 40
0.0
 40
1.128601643133824
 40
2.109277093690789
 40
2.959521446004029
 40
3.730023652074294
 40
4.254742446319012
 40
4.806481913869624
 40
5.406893836055178
 40
6.06986003159549
 40
6.06986003159549
 40
6.06986003159549
 40
6.06986003159549
 10
-63.6409323015514
 20
258.0902992349726
 30
0.0
 10
-63.97109912419038
 20
258.2727399402315
 30
0.0
 10
-64.58815768701449
 20
258.6137087987324
 30
0.0
 10
-65.32315235381785
 20
259.2875786356378
 30
0.0
 10
-65.79773750608996
 20
260.0292923566489
 30
0.0
 10
-65.94698038833702
 20
260.7484354222498
 30
0.0
 10
-65.8609959856648
 20
261.3655794972646
 30
0.0
 10
-65.64196851136361
 20
261.885256182291
 30
0.0
 10
-65.29077662204767
 20
262.3844941401769
 30
0.0
 10
-64.97835401471151
 20
262.6683735867219
 30
0.0
 10
-64.81440813794893
 20
262.8173412379438
 30
0.0
 11
-63.6409323015514
 21
258.0902992349726
 31
0.0
 11
-64.60474393706264
 21
258.6775034612299
 31
0.0
 11
-65.32092112431826
 21
259.3474397116558
 31
0.0
 11
-65.76194030995636
 21
260.0743630501144
 31
0.0
 11
-65.91085474735564
 21
260.8303380120705
 31
0.0
 11
-65.840752999991
 21
261.3503529729063
 31
0.0
 11
-65.63171610255085
 21
261.8609604710063
 31
0.0
 11
-65.28752554438347
 21
262.3529232116238
 31
0.0
 11
-64.81440813794893
 21
262.8173412379438
 31
0.0
  0
SPLINE
  5
1AB
330
1F
100
AcDbEntity
  8
0
  6
Continuous
 62
     2
100
AcDbSpline
210
0.0
220
0.0
230
1.0
 70
     8
 71
     3
 72
    11
 73
     7
 74
     5
 42
0.000000001
 43
0.0000000001
 44
0.00000001
 40
0.0
 40
0.0
 40
0.0
 40
0.0
 40
0.9174439199337651
 40
1.714638155881156
 40
2.405804529734833
 40
3.032148257202475
 40
3.032148257202475
 40
3.032148257202475
 40
3.032148257202475
 10
-62.96918085942423
 20
266.3971802853928
 30
0.0
 10
-63.23802729144432
 20
266.5454910246546
 30
0.0
 10
-63.74048235555713
 20
266.82267337599
 30
0.0
 10
-64.33249244931923
 20
267.3704147999925
 30
0.0
 10
-64.73532513376642
 20
267.9735106256055
 30
0.0
 10
-64.78892621442893
 20
268.414784999715
 30
0.0
 10
-64.81440813794893
 20
268.6245666461305
 30
0.0
 11
-62.96918085942423
 21
266.3971802853928
 31
0.0
 11
-63.75266644700101
 21
266.8745204951246
 31
0.0
 11
-64.33484919277004
 21
267.4191138341805
 31
0.0
 11
-64.69335511141784
 21
268.0100321609275
 31
0.0
 11
-64.81440813794893
 21
268.6245666461305
 31
0.0
  0
SPLINE
  5
1AC
330
1F
100
AcDbEntity
  8
0
  6
Continuous
 62
     7
100
AcDbSpline
210
0.0
220
0.0
230
1.0
 70
     8
 71
     3
 72
    11
 73
     7
 74
     5
 42
0.000000001
 43
0.0000000001
 44
0.00000001
 40
0.0
 40
0.0
 40
0.0
 40
0.0
 40
0.917443919933706
 40
1.714638155881135
 40
2.405804529734764
 40
3.032148257202406
 40
3.032148257202406
 40
3.032148257202406
 40
3.032148257202406
 10
-62.96918085942423
 20
258.6029516513329
 30
0.0
 10
-63.23802729144431
 20
258.7512623905945
 30
0.0
 10
-63.74048235555717
 20
259.0284447419299
 30
0.0
 10
-64.33249244931922
 20
259.5761861659326
 30
0.0
 10
-64.73532513376645
 20
260.1792819915456
 30
0.0
 10
-64.78892621442894
 20
260.6205563656552
 30
0.0
 10
-64.81440813794893
 20
260.8303380120705
 30
0.0
 11
-62.96918085942423
 21
258.6029516513329
 31
0.0
 11
-63.75266644700101
 21
259.0802918610646
 31
0.0
 11
-64.33484919277004
 21
259.6248852001205
 31
0.0
 11
-64.69335511141784
 21
260.2158035268675
 31
0.0
 11
-64.81440813794893
 21
260.8303380120705
 31
0.0
  0
SPLINE
  5
1AD
330
1F
100
AcDbEntity
  8
0
  6
Continuous
 62
     7
100
AcDbSpline
210
0.0
220
0.0
230
1.0
 70
    11
 71
     3
 72
    31
 73
    27
 74
    25
 42
0.000000001
 43
0.0000000001
 44
0.00000001
 40
0.0
 40
0.0
 40
0.0
 40
0.0
 40
0.399501231483239
 40
0.7481349785667969
 40
1.058158282161006
 40
1.359327784164902
 40
1.686259833586611
 40
2.06036357673201
 40
2.484976646920747
 40
2.949929869686728
 40
3.436937724085676
 40
3.923945578506272
 40
4.38889880133319
 40
4.813511871602219
 40
5.187615614781273
 40
5.514547664046421
 40
5.815717165555665
 40
6.125740468344048
 40
6.474374214354874
 40
6.873875454989363
 40
7.244561757769794
 40
7.639800646479983
 40
8.048076483820427
 40
8.456352321226772
 40
8.85159121025759
 40
9.222277503332728
 40
9.222277503332728
 40
9.222277503332728
 40
9.222277503332728
 10
-54.38490453581949
 20
252.986124630667
 30
0.0
 10
-54.27328680180737
 20
252.9122131023034
 30
0.0
 10
-54.06426334047753
 20
252.7738010110731
 30
0.0
 10
-53.71507762559587
 20
252.6842441882101
 30
0.0
 10
-53.38803189260477
 20
252.722790521948
 30
0.0
 10
-53.11779104411522
 20
252.9015208539145
 30
0.0
 10
-52.93745163955023
 20
253.1922372716282
 30
0.0
 10
-52.85080256552612
 20
253.5622363575765
 30
0.0
 10
-52.85675788407944
 20
253.9867031067459
 30
0.0
 10
-52.95302100635978
 20
254.4379243003648
 30
0.0
 10
-53.13250080186923
 20
254.8851186341484
 30
0.0
 10
-53.38256889433657
 20
255.2970191845666
 30
0.0
 10
-53.68578590471864
 20
255.6447624185862
 30
0.0
 10
-54.0217929308252
 20
255.9042065638586
 30
0.0
 10
-54.36976041474965
 20
256.0568872779
 30
0.0
 10
-54.7106032086149
 20
256.0870439842855
 30
0.0
 10
-55.01550882945055
 20
255.9780949925723
 30
0.0
 10
-55.24345136103307
 20
255.7395646235404
 30
0.0
 10
-55.37743020228422
 20
255.4065775149815
 30
0.0
 10
-55.41590851456141
 20
255.0319034834649
 30
0.0
 10
-55.3785966300182
 20
254.6435247608343
 30
0.0
 10
-55.28044274925382
 20
254.2631620811317
 30
0.0
 10
-55.12482178700321
 20
253.888832613381
 30
0.0
 10
-54.91829721964066
 20
253.540700447734
 30
0.0
 10
-54.67552843475465
 20
253.2305242340644
 30
0.0
 10
-54.47968652384127
 20
253.0658313604171
 30
0.0
 10
-54.38490453581949
 20
252.986124630667
 30
0.0
 11
-54.38490453581949
 21
252.986124630667
 31
0.0
 11
-54.03925647954463
 21
252.7858032324186
 31
0.0
 11
-53.70035443136931
 21
252.7040053667836
 31
0.0
 11
-53.39329771426562
 21
252.7467911246247
 31
0.0
 11
-53.14082608176039
 21
252.9109896137549
 31
0.0
 11
-52.96163864312628
 21
253.1844424015503
 31
0.0
 11
-52.86900453913347
 21
253.5468958936725
 31
0.0
 11
-52.86978582632962
 21
253.9715082457656
 31
0.0
 11
-52.96392297824401
 21
254.4268319729666
 31
0.0
 11
-53.14444582896775
 21
254.8791461902287
 31
0.0
 11
-53.3979834923432
 21
255.2949530011649
 31
0.0
 11
-53.70576018295532
 21
255.643456959017
 31
0.0
 11
-54.04498129231206
 21
255.8988494000297
 31
0.0
 11
-54.3905245484056
 21
256.0422142121088
 31
0.0
 11
-54.7167992418224
 21
256.0629359338788
 31
0.0
 11
-54.99964101262955
 21
255.9594777213527
 31
0.0
 11
-55.21810364916462
 21
255.7395038023744
 31
0.0
 11
-55.35600658556193
 21
255.4193034444532
 31
0.0
 11
-55.40313830072819
 21
255.0225921604842
 31
0.0
 11
-55.3701298009988
 21
254.6533784363848
 31
0.0
 11
-55.27281694716248
 21
254.2703066576752
 31
0.0
 11
-55.11624658271907
 21
253.893245813353
 31
0.0
 11
-54.9085401259274
 21
253.5417530152049
 31
0.0
 11
-54.6604704152614
 21
253.2340596649101
 31
0.0
 11
-54.38490453581949
 21
252.986124630667
 31
0.0
  0
SPLINE
  5
1AE
330
1F
100
AcDbEntity
  8
0
  6
Continuous
 62
     2
100
AcDbSpline
210
0.0
220
0.0
230
1.0
 70
     8
 71
     3
 72
    11
 73
     7
 74
     5
 42
0.000000001
 43
0.0000000001
 44
0.00000001
 40
0.0
 40
0.0
 40
0.0
 40
0.0
 40
0.3160005357151706
 40
0.6465443545171791
 40
1.00287795272831
 40
1.391392288616381
 40
1.391392288616381
 40
1.391392288616381
 40
1.391392288616381
 10
-52.29000636575279
 20
277.4243218763938
 30
0.0
 10
-52.19156408195867
 20
277.4637376758405
 30
0.0
 10
-51.99014890358587
 20
277.5443832928055
 30
0.0
 10
-51.65053638697869
 20
277.5557616360786
 30
0.0
 10
-51.29478971974689
 20
277.4932133410231
 30
0.0
 10
-51.06711908506398
 20
277.3919406054974
 30
0.0
 10
-50.94836557925294
 20
277.3391165147475
 30
0.0
 11
-52.29000636575279
 21
277.4243218763938
 31
0.0
 11
-51.99049212795505
 21
277.5250569806296
 31
0.0
 11
-51.66051548917829
 21
277.5444124938168
 31
0.0
 11
-51.30972193804886
 21
277.4818224048679
 31
0.0
 11
-50.94836557925294
 21
277.3391165147475
 31
0.0
  0
SPLINE
  5
1AF
330
1F
100
AcDbEntity
  8
0
  6
Continuous
 62
     7
100
AcDbSpline
210
0.0
220
0.0
230
1.0
 70
     8
 71
     3
 72
    21
 73
    17
 74
    15
 42
0.000000001
 43
0.0000000001
 44
0.00000001
 40
0.0
 40
0.0
 40
0.0
 40
0.0
 40
0.5929850851544353
 40
1.124781929472682
 40
1.602172042344265
 40
2.046598080738312
 40
2.499245034751464
 40
2.986579851493891
 40
3.530807995627481
 40
4.138437663239377
 40
4.803249050681144
 40
5.510290325710596
 40
6.239278493362415
 40
6.967438835417505
 40
7.672087602484084
 40
8.333223913498038
 40
8.333223913498038
 40
8.333223913498038
 40
8.333223913498038
 10
-54.44854414612632
 20
256.5251940705056
 30
0.0
 10
-54.43890661486516
 20
256.7232904219148
 30
0.0
 10
-54.42062601045849
 20
257.0990421927399
 30
0.0
 10
-54.25497183897147
 20
257.6139338097503
 30
0.0
 10
-53.98705280680002
 20
258.0261640871807
 30
0.0
 10
-53.61423750072247
 20
258.3099647956927
 30
0.0
 10
-53.15964992944296
 20
258.4371583533366
 30
0.0
 10
-52.65818494576951
 20
258.3998016902161
 30
0.0
 10
-52.14025579730621
 20
258.2093070449699
 30
0.0
 10
-51.62765556041316
 20
257.8796904694088
 30
0.0
 10
-51.14266659061261
 20
257.427898209951
 30
0.0
 10
-50.70795768127498
 20
256.8758347541607
 30
0.0
 10
-50.34346557169314
 20
256.2503264283553
 30
0.0
 10
-50.07042114851544
 20
255.5818590197468
 30
0.0
 10
-49.88960549543958
 20
254.9032093889674
 30
0.0
 10
-49.8645019485522
 20
254.4476297237511
 30
0.0
 10
-49.85235006841367
 20
254.2270970316494
 30
0.0
 11
-54.44854414612632
 21
256.5251940705056
 31
0.0
 11
-54.39238939955558
 21
257.1155142936872
 31
0.0
 11
-54.22667033449687
 21
257.6208311019552
 31
0.0
 11
-53.9594848934081
 21
258.0164486711491
 31
0.0
 11
-53.6038912926449
 21
258.2830339218273
 31
0.0
 11
-53.16896848500832
 21
258.4084588707221
 31
0.0
 11
-52.68244944191974
 21
258.3802729525067
 31
0.0
 11
-52.16898000919262
 21
258.1999027322327
 31
0.0
 11
-51.65457173709297
 21
257.876486677514
 31
0.0
 11
-51.16528372024036
 21
257.4264073298024
 31
0.0
 11
-50.72590209041783
 21
256.872465862173
 31
0.0
 11
-50.35868563875582
 21
256.2427231944707
 31
0.0
 11
-50.08223620350014
 21
255.5690814539524
 31
0.0
 11
-49.91055903347882
 21
254.8856658883603
 31
0.0
 11
-49.85235006841367
 21
254.2270970316494
 31
0.0
  0
SPLINE
  5
1B0
330
1F
100
AcDbEntity
  8
0
  6
Continuous
 62
     7
100
AcDbSpline
210
0.0
220
0.0
230
1.0
 70
     8
 71
     3
 72
    21
 73
    17
 74
    15
 42
0.000000001
 43
0.0000000001
 44
0.00000001
 40
0.0
 40
0.0
 40
0.0
 40
0.0
 40
0.3440337695719029
 40
0.6845584923669048
 40
0.9968268185865914
 40
1.328778254622595
 40
1.650646070856037
 40
1.945568913112149
 40
2.260010840280592
 40
2.545863699728194
 40
2.826829692321681
 40
3.137933744660597
 40
3.416295458117225
 40
3.727562323553903
 40
4.323082843088371
 40
4.912927927050504
 40
4.912927927050504
 40
4.912927927050504
 40
4.912927927050504
 10
-21.60529625776576
 20
265.7570599868158
 30
0.0
 10
-21.5035231753454
 20
265.7041417630034
 30
0.0
 10
-21.30101507394438
 20
265.5988450533678
 30
0.0
 10
-21.01793050998388
 20
265.4243006600266
 30
0.0
 10
-20.74835212342042
 20
265.2367689276759
 30
0.0
 10
-20.49584007819995
 20
265.0365205984787
 30
0.0
 10
-20.2613431201551
 20
264.8239859240471
 30
0.0
 10
-20.04533644317461
 20
264.6007731786267
 30
0.0
 10
-19.85253023323312
 20
264.372683759802
 30
0.0
 10
-19.67863069897434
 20
264.1356702699847
 30
0.0
 10
-19.52153466052689
 20
263.8885103492153
 30
0.0
 10
-19.3837086950021
 20
263.6328824541868
 30
0.0
 10
-19.26060509148571
 20
263.3587138533188
 30
0.0
 10
-19.12657893853784
 20
262.9869601764356
 30
0.0
 10
-19.0067774138111
 20
262.4993355037634
 30
0.0
 10
-18.98915729331296
 20
262.1038487986474
 30
0.0
 10
-18.98038942218125
 20
261.9070522248583
 30
0.0
 11
-21.60529625776576
 21
265.7570599868158
 31
0.0
 11
-21.30202365401318
 21
265.5946255003789
 31
0.0
 11
-21.01172345614998
 21
265.4166286402925
 31
0.0
 11
-20.75561415008322
 21
265.2379682609465
 31
0.0
 11
-20.49559930553073
 21
265.0316092611286
 31
0.0
 11
-20.25723769171374
 21
264.8153163289728
 31
0.0
 11
-20.05223124351346
 21
264.6032978407092
 31
0.0
 11
-19.84934476281009
 21
264.363067114408
 31
0.0
 11
-19.6803174144477
 21
264.1325424669817
 31
0.0
 11
-19.52967401649506
 21
263.8953748975899
 31
0.0
 11
-19.38208249719708
 21
263.6215090997137
 31
0.0
 11
-19.268201312119
 21
263.3675084706159
 31
0.0
 11
-19.16225488424618
 21
263.0748270457482
 31
0.0
 11
-19.02582483912552
 21
262.4951447755471
 31
0.0
 11
-18.98038942218125
 21
261.9070522248583
 31
0.0
  0
SPLINE
  5
1B1
330
1F
100
AcDbEntity
  8
0
  6
Continuous
 62
     2
100
AcDbSpline
210
0.0
220
0.0
230
1.0
 70
     8
 71
     3
 72
    11
 73
     7
 74
     5
 42
0.000000001
 43
0.0000000001
 44
0.00000001
 40
0.0
 40
0.0
 40
0.0
 40
0.0
 40
0.6263437274676984
 40
1.317510101321372
 40
2.114704337268804
 40
3.032148257202507
 40
3.032148257202507
 40
3.032148257202507
 40
3.032148257202507
 10
-18.98038942218125
 20
261.9070522248583
 30
0.0
 10
-19.00587134570123
 20
261.6972705784429
 30
0.0
 10
-19.05947242636375
 20
261.2559962043333
 30
0.0
 10
-19.46230511081093
 20
260.6529003787203
 30
0.0
 10
-20.05431520457302
 20
260.1051589547176
 30
0.0
 10
-20.55677026868586
 20
259.8279766033823
 30
0.0
 10
-20.82561670070595
 20
259.6796658641206
 30
0.0
 11
-18.98038942218125
 21
261.9070522248583
 31
0.0
 11
-19.10144244871234
 21
261.2925177396552
 31
0.0
 11
-19.45994836736014
 21
260.7015994129082
 31
0.0
 11
-20.04213111312917
 21
260.1570060738523
 31
0.0
 11
-20.82561670070595
 21
259.6796658641206
 31
0.0
  0
SPLINE
  5
1B2
330
1F
100
AcDbEntity
  8
0
  6
Continuous
 62
     7
100
AcDbSpline
210
0.0
220
0.0
230
1.0
 70
     8
 71
     3
 72
    15
 73
    11
 74
     9
 42
0.000000001
 43
0.0000000001
 44
0.00000001
 40
0.0
 40
0.0
 40
0.0
 40
0.0
 40
1.128601643133714
 40
2.109277093690666
 40
2.959521446004037
 40
3.730023652074295
 40
4.254742446319016
 40
4.806481913869689
 40
5.406893836055174
 40
6.069860031595528
 40
6.069860031595528
 40
6.069860031595528
 40
6.069860031595528
 10
-20.15386525857878
 20
251.3727848137004
 30
0.0
 10
-19.82369843593982
 20
251.5552255189592
 30
0.0
 10
-19.2066398731157
 20
251.8961943774601
 30
0.0
 10
-18.47164520631243
 20
252.5700642143656
 30
0.0
 10
-17.99706005404025
 20
253.3117779353767
 30
0.0
 10
-17.84781717179299
 20
254.0309210009776
 30
0.0
 10
-17.9338015744653
 20
254.6480650759924
 30
0.0
 10
-18.15282904876652
 20
255.1677417610188
 30
0.0
 10
-18.50402093808257
 20
255.6669797189046
 30
0.0
 10
-18.81644354541866
 20
255.9508591654497
 30
0.0
 10
-18.98038942218125
 20
256.0998268166716
 30
0.0
 11
-20.15386525857878
 21
251.3727848137004
 31
0.0
 11
-19.1900536230676
 21
251.9599890399576
 31
0.0
 11
-18.47387643581203
 21
252.6299252903835
 31
0.0
 11
-18.03285725017382
 21
253.3568486288422
 31
0.0
 11
-17.88394281277442
 21
254.1128235907983
 31
0.0
 11
-17.95404456013908
 21
254.632838551634
 31
0.0
 11
-18.16308145757932
 21
255.1434460497341
 31
0.0
 11
-18.50727201574671
 21
255.6354087903516
 31
0.0
 11
-18.98038942218125
 21
256.0998268166716
 31
0.0
  0
SPLINE
  5
1B3
330
1F
100
AcDbEntity
  8
0
  6
Continuous
 62
     7
100
AcDbSpline
210
0.0
220
0.0
230
1.0
 70
     8
 71
     3
 72
    11
 73
     7
 74
     5
 42
0.000000001
 43
0.0000000001
 44
0.00000001
 40
0.0
 40
0.0
 40
0.0
 40
0.0
 40
0.6263437274676148
 40
1.317510101321337
 40
2.11470433726871
 40
3.032148257202354
 40
3.032148257202354
 40
3.032148257202354
 40
3.032148257202354
 10
-18.98038942218125
 20
254.1128235907983
 30
0.0
 10
-19.00587134570124
 20
253.9030419443829
 30
0.0
 10
-19.05947242636378
 20
253.4617675702735
 30
0.0
 10
-19.46230511081089
 20
252.8586717446603
 30
0.0
 10
-20.05431520457303
 20
252.3109303206577
 30
0.0
 10
-20.55677026868585
 20
252.0337479693224
 30
0.0
 10
-20.82561670070595
 20
251.8854372300608
 30
0.0
 11
-18.98038942218125
 21
254.1128235907983
 31
0.0
 11
-19.10144244871234
 21
253.4982891055953
 31
0.0
 11
-19.45994836736014
 21
252.9073707788482
 31
0.0
 11
-20.04213111312917
 21
252.3627774397924
 31
0.0
 11
-20.82561670070595
 21
251.8854372300608
 31
0.0
  0
SPLINE
  5
1B4
330
1F
100
AcDbEntity
  8
0
  6
Continuous
 62
     7
100
AcDbSpline
210
0.0
220
0.0
230
1.0
 70
     8
 71
     3
 72
    14
 73
    10
 74
     8
 42
0.000000001
 43
0.0000000001
 44
0.00000001
 40
0.0
 40
0.0
 40
0.0
 40
0.0
 40
0.0378369639967251
 40
0.0731915287534536
 40
0.0930429111778684
 40
0.1088975039220431
 40
0.1220612809414005
 40
0.1275531886243756
 40
0.1333139342927289
 40
0.1333139342927289
 40
0.1333139342927289
 40
0.1333139342927289
 10
-44.82201753316167
 20
269.3772354985345
 30
0.0
 10
-44.83464498997984
 20
269.3780598614023
 30
0.0
 10
-44.85907144436359
 20
269.3796544960906
 30
0.0
 10
-44.88988248274865
 20
269.3728871131509
 30
0.0
 10
-44.91126349742487
 20
269.3623611314293
 30
0.0
 10
-44.92356589428314
 20
269.3510780455646
 30
0.0
 10
-44.92753158080055
 20
269.3395729730066
 30
0.0
 10
-44.92647779506809
 20
269.331371802519
 30
0.0
 10
-44.92490412209313
 20
269.3279478826552
 30
0.0
 10
-44.92409848343868
 20
269.3261950233961
 30
0.0
 11
-44.82201753316167
 21
269.3772354985345
 31
0.0
 11
-44.85984933846916
 21
269.3778597388983
 31
0.0
 11
-44.89433110573418
 21
269.3700524998982
 31
0.0
 11
-44.9119236499235
 21
269.3608557733647
 31
0.0
 11
-44.92305803823351
 21
269.349568899989
 31
0.0
 11
-44.9269449136691
 21
269.336992046983
 31
0.0
 11
-44.92623024122781
 21
269.3315468367344
 31
0.0
 11
-44.92409848343868
 21
269.3261950233961
 31
0.0
  0
SPLINE
  5
1B5
330
1F
100
AcDbEntity
  8
0
  6
Continuous
 62
     7
100
AcDbSpline
210
0.0
220
0.0
230
1.0
 70
     8
 71
     3
 72
    27
 73
    23
 74
    21
 42
0.000000001
 43
0.0000000001
 44
0.00000001
 40
0.0
 40
0.0
 40
0.0
 40
0.0
 40
0.3649138939781905
 40
0.6921734908305601
 40
0.9859520220363729
 40
1.259444968835342
 40
1.583675072767
 40
1.940287748365698
 40
2.346933127424895
 40
2.804596043742233
 40
3.302233672051894
 40
3.8215511563748
 40
4.340868640697698
 40
4.838506269007413
 40
5.296169185324797
 40
5.702814564384007
 40
6.059427239982642
 40
6.383657343914295
 40
6.657150290713178
 40
6.950928821919037
 40
7.27818841877138
 40
7.643102312749541
 40
7.643102312749541
 40
7.643102312749541
 40
7.643102312749541
 10
-55.40313830072819
 20
255.1640135167215
 30
0.0
 10
-55.3972064635979
 20
255.2859180799691
 30
0.0
 10
-55.38595487354701
 20
255.5171482641737
 30
0.0
 10
-55.28402713646964
 20
255.8340158235648
 30
0.0
 10
-55.11911042160438
 20
256.0876594303069
 30
0.0
 10
-54.87745275445606
 20
256.2718698279135
 30
0.0
 10
-54.55886612123414
 20
256.3499045380869
 30
0.0
 10
-54.19355020020565
 20
256.2931136872384
 30
0.0
 10
-53.82328308289824
 20
256.1138330117542
 30
0.0
 10
-53.46739978912308
 20
255.8269343832006
 30
0.0
 10
-53.1467050230136
 20
255.4512001403237
 30
0.0
 10
-52.88124833749006
 20
255.0107449359676
 30
0.0
 10
-52.68815818531928
 20
254.534106464935
 30
0.0
 10
-52.57998765068334
 20
254.0521101063212
 30
0.0
 10
-52.56399872410564
 20
253.5952642941689
 30
0.0
 10
-52.64273445410279
 20
253.1914821950325
 30
0.0
 10
-52.81649132604112
 20
252.8651549477006
 30
0.0
 10
-53.07007107411273
 20
252.657106467227
 30
0.0
 10
-53.36243399248699
 20
252.5743065720721
 30
0.0
 10
-53.66429890679989
 20
252.5945593642255
 30
0.0
 10
-53.97894959655912
 20
252.7031377101983
 30
0.0
 10
-54.17068469795336
 20
252.8328745486801
 30
0.0
 10
-54.27176745082966
 20
252.9012718169245
 30
0.0
 11
-55.40313830072819
 21
255.1640135167215
 31
0.0
 11
-55.36858153360779
 21
255.5272875002178
 31
0.0
 11
-55.26660057049475
 21
255.8382516899212
 31
0.0
 11
-55.10217876059388
 21
256.081708655579
 31
0.0
 11
-54.88335192935494
 21
256.2457611175348
 31
0.0
 11
-54.56935284850235
 21
256.3265679134311
 31
0.0
 11
-54.21579885009135
 21
256.2799613527706
 31
0.0
 11
-53.84678363904287
 21
256.1091156937346
 31
0.0
 11
-53.48745503580449
 21
255.8256755755602
 31
0.0
 11
-53.16230102235542
 21
255.4489554179611
 31
0.0
 11
-52.89347962334477
 21
255.0046292930402
 31
0.0
 11
-52.6993115628145
 21
254.5229764988791
 31
0.0
 11
-52.59302784480457
 21
254.0368211935603
 31
0.0
 11
-52.58187291220813
 21
253.579294240065
 31
0.0
 11
-52.66660551160845
 21
253.1815746758046
 31
0.0
 11
-52.84145266212661
 21
252.8707675406795
 31
0.0
 11
-53.0944975473551
 21
252.6680523535351
 31
0.0
 11
-53.35703561566307
 21
252.5914223657175
 31
0.0
 11
-53.6504542741298
 21
252.6059590971915
 31
0.0
 11
-53.9604142037603
 21
252.7109528405232
 31
0.0
 11
-54.27176745082966
 21
252.9012718169245
 31
0.0
  0
SPLINE
  5
1B6
330
1F
100
AcDbEntity
  8
0
  6
Continuous
 62
     7
100
AcDbSpline
210
0.0
220
0.0
230
1.0
 70
     8
 71
     3
 72
    19
 73
    15
 74
    13
 42
0.000000001
 43
0.0000000001
 44
0.00000001
 40
0.0
 40
0.0
 40
0.0
 40
0.0
 40
0.3242301001905697
 40
0.6808427684110439
 40
1.087488150106323
 40
1.545151069402706
 40
2.042788701729245
 40
2.562106193426049
 40
3.081423685122939
 40
3.579061317449388
 40
4.036724236745842
 40
4.443369618441186
 40
4.799982286661695
 40
5.124212386852284
 40
5.124212386852284
 40
5.124212386852284
 40
5.124212386852284
 10
-53.04487429826997
 20
257.1649999330774
 30
0.0
 10
-52.94125341179615
 20
257.2006970891917
 30
0.0
 10
-52.72366247210381
 20
257.2756566484292
 30
0.0
 10
-52.35402136151283
 20
257.2102612317432
 30
0.0
 10
-51.98514310273919
 20
257.0337435730552
 30
0.0
 10
-51.62881858129286
 20
256.7459671826279
 30
0.0
 10
-51.30825554621529
 20
256.3704949610363
 30
0.0
 10
-51.04277061737059
 20
255.9299837960274
 30
0.0
 10
-50.84965264266992
 20
255.453289153946
 30
0.0
 10
-50.74161268644336
 20
254.9715553929291
 30
0.0
 10
-50.72518628696952
 20
254.5138299415156
 30
0.0
 10
-50.80529911528311
 20
254.1128167392839
 30
0.0
 10
-50.9747674482889
 20
253.7778666007993
 30
0.0
 10
-51.16528965949433
 20
253.648769584588
 30
0.0
 10
-51.25601991627013
 20
253.5872911690776
 30
0.0
 11
-53.04487429826997
 21
257.1649999330774
 31
0.0
 11
-52.73087521741729
 21
257.2458067289735
 31
0.0
 11
-52.37732121900638
 21
257.199200168313
 31
0.0
 11
-52.0083060079579
 21
257.0283545092771
 31
0.0
 11
-51.64897740471952
 21
256.7449143911027
 31
0.0
 11
-51.32382339127044
 21
256.3681942335035
 31
0.0
 11
-51.0550019922597
 21
255.9238681085827
 31
0.0
 11
-50.86083393172937
 21
255.4422153144216
 31
0.0
 11
-50.75455021371954
 21
254.9560600091029
 31
0.0
 11
-50.74339528112311
 21
254.4985330556075
 31
0.0
 11
-50.82812788052337
 21
254.1008134913471
 31
0.0
 11
-51.00297503104159
 21
253.790006356222
 31
0.0
 11
-51.25601991627013
 21
253.5872911690776
 31
0.0
  0
SPLINE
  5
1B7
330
1F
100
AcDbEntity
  8
0
  6
Continuous
 62
     7
100
AcDbSpline
210
0.0
220
0.0
230
1.0
 70
     8
 71
     3
 72
    17
 73
    13
 74
    11
 42
0.000000001
 43
0.0000000001
 44
0.00000001
 40
0.0
 40
0.0
 40
0.0
 40
0.0
 40
0.4526469483987111
 40
0.9399817615084185
 40
1.484209907892046
 40
2.091839577490973
 40
2.756650966494875
 40
3.463692242713766
 40
4.1926804112707
 40
4.920840754281972
 40
5.625489524016875
 40
6.286625841880581
 40
6.286625841880581
 40
6.286625841880581
 40
6.286625841880581
 10
-52.75536315522106
 20
258.7072979905391
 30
0.0
 10
-52.61219997904967
 20
258.7598588111576
 30
0.0
 10
-52.31490254612127
 20
258.8690083520026
 30
0.0
 10
-51.80848044748936
 20
258.8217054459258
 30
0.0
 10
-51.29209918263353
 20
258.6343165714485
 30
0.0
 10
-50.77901259425353
 20
258.3037241561165
 30
0.0
 10
-50.29417260279526
 20
257.8522308183687
 30
0.0
 10
-49.85941982621378
 20
257.3000793460114
 30
0.0
 10
-49.49494006494901
 20
256.674595796389
 30
0.0
 10
-49.22189232801426
 20
256.0061217367856
 30
0.0
 10
-49.04107751138602
 20
255.3274737748222
 30
0.0
 10
-49.01597386191334
 20
254.8718938963932
 30
0.0
 10
-49.00382193098983
 20
254.6513611003612
 30
0.0
 11
-52.75536315522106
 21
258.7072979905391
 31
0.0
 11
-52.32044034758444
 21
258.8327229394341
 31
0.0
 11
-51.8339213044959
 21
258.8045370212187
 31
0.0
 11
-51.32045187176877
 21
258.6241668009446
 31
0.0
 11
-50.80604359966907
 21
258.300750746226
 31
0.0
 11
-50.31675558281647
 21
257.8506713985144
 31
0.0
 11
-49.87737395299399
 21
257.2967299308849
 31
0.0
 11
-49.51015750133195
 21
256.6669872631826
 31
0.0
 11
-49.23370806607625
 21
255.9933455226643
 31
0.0
 11
-49.06203089605496
 21
255.3099299570721
 31
0.0
 11
-49.00382193098983
 21
254.6513611003612
 31
0.0
  0
SPLINE
  5
1B8
330
1F
100
AcDbEntity
  8
0
  6
Continuous
 62
     2
100
AcDbSpline
210
0.0
220
0.0
230
1.0
 70
     8
 71
     3
 72
    13
 73
     9
 74
     7
 42
0.000000001
 43
0.0000000001
 44
0.00000001
 40
0.0
 40
0.0
 40
0.0
 40
0.0
 40
0.6582140732375036
 40
1.384404504230039
 40
2.154561823307994
 40
2.937495405793507
 40
3.70009905070782
 40
4.412349174002149
 40
4.412349174002149
 40
4.412349174002149
 40
4.412349174002149
 10
-60.84786051586457
 20
270.0559166685259
 30
0.0
 10
-61.0366038525385
 20
269.9423877747454
 30
0.0
 10
-61.43358278476741
 20
269.7036053990066
 30
0.0
 10
-61.9330420365981
 20
269.1773530238185
 30
0.0
 10
-62.36874061579437
 20
268.5522025838394
 30
0.0
 10
-62.69960054651833
 20
267.8518869888165
 30
0.0
 10
-62.92240982285853
 20
267.126850901437
 30
0.0
 10
-62.95394945405421
 20
266.6348041080917
 30
0.0
 10
-62.96918085942423
 20
266.3971802853928
 30
0.0
 11
-60.84786051586457
 21
270.0559166685259
 31
0.0
 11
-61.39689847516453
 21
269.692869719676
 31
0.0
 11
-61.90852068764445
 21
269.1775103712829
 31
0.0
 11
-62.34786011595594
 21
268.5449574744283
 31
0.0
 11
-62.68497782295196
 21
267.8383199093056
 31
0.0
 11
-62.89689807525589
 21
267.1057531023289
 31
0.0
 11
-62.96918085942423
 21
266.3971802853928
 31
0.0
  0
SPLINE
  5
1B9
330
1F
100
AcDbEntity
  8
0
  6
Continuous
 62
     7
100
AcDbSpline
210
0.0
220
0.0
230
1.0
 70
     8
 71
     3
 72
    15
 73
    11
 74
     9
 42
0.000000001
 43
0.0000000001
 44
0.00000001
 40
0.0
 40
0.0
 40
0.0
 40
0.0
 40
0.0570084249937796
 40
0.1211034947196511
 40
0.1851985632148829
 40
0.2422069826325316
 40
0.2873308897742861
 40
0.3216521553542507
 40
0.3559734221276749
 40
0.4010973233966983
 40
0.4010973233966983
 40
0.4010973233966983
 40
0.4010973233966983
 10
-42.10157580650503
 20
268.8224573054076
 30
0.0
 10
-42.08376719312685
 20
268.8293310483917
 30
0.0
 10
-42.04593619573789
 20
268.8439329868784
 30
0.0
 10
-41.98363222579147
 20
268.8486166709547
 30
0.0
 10
-41.9218624860904
 20
268.8431780535352
 30
0.0
 10
-41.86860295010536
 20
268.8262985856659
 30
0.0
 10
-41.82950738635702
 20
268.8011454134183
 30
0.0
 10
-41.8117062314174
 20
268.7636077347589
 30
0.0
 10
-41.82938474264464
 20
268.7255662027349
 30
0.0
 10
-41.85265584005239
 20
268.7121987343714
 30
0.0
 10
-41.86587354610947
 20
268.7046061752099
 30
0.0
 11
-42.10157580650503
 21
268.8224573054076
 31
0.0
 11
-42.04750505444356
 21
268.8405214672638
 31
0.0
 11
-41.98372467630725
 21
268.8468650736421
 31
0.0
 11
-41.91994429817089
 21
268.8405214672638
 31
0.0
 11
-41.86587354610947
 21
268.8224573054076
 31
0.0
 11
-41.82974522239716
 21
268.7954219293769
 31
0.0
 11
-41.81705800964051
 21
268.7635317403086
 31
0.0
 11
-41.82974522239716
 21
268.7316415512404
 31
0.0
 11
-41.86587354610947
 21
268.7046061752099
 31
0.0
  0
SPLINE
  5
1BA
330
1F
100
AcDbEntity
  8
0
  6
Continuous
 62
     7
100
AcDbSpline
210
0.0
220
0.0
230
1.0
 70
     8
 71
     3
 72
    15
 73
    11
 74
     9
 42
0.000000001
 43
0.0000000001
 44
0.00000001
 40
0.0
 40
0.0
 40
0.0
 40
0.0
 40
0.0570084249936964
 40
0.121103494719592
 40
0.1851985632148196
 40
0.2422069826324503
 40
0.2873308897742105
 40
0.3216521553541223
 40
0.3559734221275465
 40
0.4010973233967119
 40
0.4010973233967119
 40
0.4010973233967119
 40
0.4010973233967119
 10
-42.84494447390625
 20
268.9221774924981
 30
0.0
 10
-42.82713586052809
 20
268.9290512354823
 30
0.0
 10
-42.78930486313914
 20
268.9436531739689
 30
0.0
 10
-42.7270008931927
 20
268.9483368580449
 30
0.0
 10
-42.66523115349163
 20
268.9428982406256
 30
0.0
 10
-42.61197161750656
 20
268.9260187727563
 30
0.0
 10
-42.57287605375827
 20
268.9008656005087
 30
0.0
 10
-42.55507489881861
 20
268.8633279218494
 30
0.0
 10
-42.57275341004591
 20
268.8252863898252
 30
0.0
 10
-42.59602450745359
 20
268.8119189214617
 30
0.0
 10
-42.6092422135107
 20
268.8043263623002
 30
0.0
 11
-42.84494447390625
 21
268.9221774924981
 31
0.0
 11
-42.79087372184483
 21
268.9402416543542
 31
0.0
 11
-42.72709334370848
 21
268.9465852607324
 31
0.0
 11
-42.66331296557212
 21
268.9402416543542
 31
0.0
 11
-42.6092422135107
 21
268.9221774924981
 31
0.0
 11
-42.57311388979838
 21
268.8951421164673
 31
0.0
 11
-42.56042667704173
 21
268.8632519273991
 31
0.0
 11
-42.57311388979838
 21
268.8313617383309
 31
0.0
 11
-42.6092422135107
 21
268.8043263623002
 31
0.0
  0
SPLINE
  5
1BB
330
1F
100
AcDbEntity
  8
0
  6
Continuous
 62
     7
100
AcDbSpline
210
0.0
220
0.0
230
1.0
 70
     8
 71
     3
 72
    14
 73
    10
 74
     8
 42
0.000000001
 43
0.0000000001
 44
0.00000001
 40
0.0
 40
0.0
 40
0.0
 40
0.0
 40
0.0378369639965636
 40
0.0731915287532353
 40
0.0930429111776965
 40
0.1088975039218002
 40
0.1220612809410491
 40
0.1275531886240195
 40
0.1333139342925444
 40
0.1333139342925444
 40
0.1333139342925444
 40
0.1333139342925444
 10
-38.97278002696839
 20
266.350535795161
 30
0.0
 10
-38.96015257015029
 20
266.3497114322932
 30
0.0
 10
-38.93572611576662
 20
266.3481167976048
 30
0.0
 10
-38.90491507738156
 20
266.3548841805446
 30
0.0
 10
-38.88353406270546
 20
266.3654101622661
 30
0.0
 10
-38.87123166584715
 20
266.376693248131
 30
0.0
 10
-38.86726597932974
 20
266.3881983206887
 30
0.0
 10
-38.86831976506219
 20
266.3963994911765
 30
0.0
 10
-38.86989343803714
 20
266.3998234110402
 30
0.0
 10
-38.87069907669161
 20
266.4015762702994
 30
0.0
 11
-38.97278002696839
 21
266.350535795161
 31
0.0
 11
-38.93494822166106
 21
266.3499115547971
 31
0.0
 11
-38.90046645439611
 21
266.3577187937973
 31
0.0
 11
-38.8828739102068
 21
266.3669155203308
 31
0.0
 11
-38.87173952189678
 21
266.3782023937065
 31
0.0
 11
-38.86785264646119
 21
266.3907792467123
 31
0.0
 11
-38.86856731890244
 21
266.396224456961
 31
0.0
 11
-38.87069907669161
 21
266.4015762702994
 31
0.0
  0
SPLINE
  5
1BC
330
1F
100
AcDbEntity
  8
0
  6
Continuous
 62
     7
100
AcDbSpline
210
0.0
220
0.0
230
1.0
 70
     8
 71
     3
 72
    15
 73
    11
 74
     9
 42
0.000000001
 43
0.0000000001
 44
0.00000001
 40
0.0
 40
0.0
 40
0.0
 40
0.0
 40
0.0451239012690857
 40
0.0794451680425576
 40
0.1137664336224165
 40
0.1588903407641767
 40
0.2158987601817602
 40
0.2799938286769793
 40
0.3440888984028932
 40
0.4010973233967156
 40
0.4010973233967156
 40
0.4010973233967156
 40
0.4010973233967156
 10
-44.01398247136581
 20
268.3376584937683
 30
0.0
 10
-44.02720017742286
 20
268.3300659346068
 30
0.0
 10
-44.05047127483053
 20
268.3166984662432
 30
0.0
 10
-44.06814978605777
 20
268.278656934219
 30
0.0
 10
-44.05034863111809
 20
268.2411192555596
 30
0.0
 10
-44.01125306736986
 20
268.2159660833123
 30
0.0
 10
-43.95799353138477
 20
268.1990866154426
 30
0.0
 10
-43.89622379168375
 20
268.1936479980236
 30
0.0
 10
-43.83391982173725
 20
268.1983316820995
 30
0.0
 10
-43.79608882434831
 20
268.2129336205865
 30
0.0
 10
-43.77828021097014
 20
268.2198073635706
 30
0.0
 11
-44.01398247136581
 21
268.3376584937683
 31
0.0
 11
-44.05011079507803
 21
268.3106231177375
 31
0.0
 11
-44.06279800783466
 21
268.2787329286693
 31
0.0
 11
-44.05011079507801
 21
268.2468427396012
 31
0.0
 11
-44.01398247136569
 21
268.2198073635704
 31
0.0
 11
-43.95991171930432
 21
268.2017432017143
 31
0.0
 11
-43.89613134116797
 21
268.195399595336
 31
0.0
 11
-43.83235096303162
 21
268.2017432017144
 31
0.0
 11
-43.77828021097014
 21
268.2198073635706
 31
0.0
  0
SPLINE
  5
1BD
330
1F
100
AcDbEntity
  8
0
  6
Continuous
 62
     7
100
AcDbSpline
210
0.0
220
0.0
230
1.0
 70
     8
 71
     3
 72
    13
 73
     9
 74
     7
 42
0.000000001
 43
0.0000000001
 44
0.00000001
 40
0.0
 40
0.0
 40
0.0
 40
0.0
 40
0.0485420093233669
 40
0.0907215971277845
 40
0.1272912442670058
 40
0.1604311209141771
 40
0.1823987563687884
 40
0.2054417708848382
 40
0.2054417708848382
 40
0.2054417708848382
 40
0.2054417708848382
 10
-43.74647553590921
 20
268.0000074407054
 30
0.0
 10
-43.76067713736551
 20
267.9921600784092
 30
0.0
 10
-43.78721892357997
 20
267.9774938997508
 30
0.0
 10
-43.81882100526916
 20
267.9485156871039
 30
0.0
 10
-43.83926627402198
 20
267.9165970953961
 30
0.0
 10
-43.84554660087072
 20
267.8859173367477
 30
0.0
 10
-43.84225222080221
 20
267.8596770498006
 30
0.0
 10
-43.83594820740966
 20
267.8459802389632
 30
0.0
 10
-43.83272088792523
 20
267.8389682161597
 30
0.0
 11
-43.74647553590921
 21
268.0000074407054
 31
0.0
 11
-43.78792979980228
 21
267.9747513449524
 31
0.0
 11
-43.81873311968423
 21
267.9459368825686
 31
0.0
 11
-43.83770168680839
 21
267.9146713626349
 31
0.0
 11
-43.84410660884703
 21
267.8821563105078
 31
0.0
 11
-43.84124791908189
 21
267.8603754695131
 31
0.0
 11
-43.83272088792523
 21
267.8389682161597
 31
0.0
  0
SPLINE
  5
1BE
330
1F
100
AcDbEntity
  8
0
  6
Continuous
 62
     7
100
AcDbSpline
210
0.0
220
0.0
230
1.0
 70
     8
 71
     3
 72
    13
 73
     9
 74
     7
 42
0.000000001
 43
0.0000000001
 44
0.00000001
 40
0.0
 40
0.0
 40
0.0
 40
0.0
 40
0.6582140732374075
 40
1.384404504229931
 40
2.154561823307847
 40
2.937495405793315
 40
3.700099050707725
 40
4.412349174001945
 40
4.412349174001945
 40
4.412349174001945
 40
4.412349174001945
 10
-30.01800485613103
 20
259.802868341321
 30
0.0
 10
-29.82926151945713
 20
259.6893394475405
 30
0.0
 10
-29.43228258722833
 20
259.4505570718016
 30
0.0
 10
-28.93282333539777
 20
258.9243046966135
 30
0.0
 10
-28.49712475620134
 20
258.2991542566345
 30
0.0
 10
-28.16626482547733
 20
257.5988386616117
 30
0.0
 10
-27.94345554913729
 20
256.8738025742319
 30
0.0
 10
-27.9119159179415
 20
256.3817557808869
 30
0.0
 10
-27.89668451257148
 20
256.1441319581879
 30
0.0
 11
-30.01800485613103
 21
259.802868341321
 31
0.0
 11
-29.46896689683122
 21
259.439821392471
 31
0.0
 11
-28.95734468435137
 21
258.9244620440779
 31
0.0
 11
-28.51800525603979
 21
258.2919091472234
 31
0.0
 11
-28.18088754904375
 21
257.5852715821007
 31
0.0
 11
-27.96896729673986
 21
256.8527047751239
 31
0.0
 11
-27.89668451257148
 21
256.1441319581879
 31
0.0
  0
SPLINE
  5
1BF
330
1F
100
AcDbEntity
  8
0
  6
Continuous
 62
     7
100
AcDbSpline
210
0.0
220
0.0
230
1.0
 70
     8
 71
     3
 72
    13
 73
     9
 74
     7
 42
0.000000001
 43
0.0000000001
 44
0.00000001
 40
0.0
 40
0.0
 40
0.0
 40
0.0
 40
0.2374167079261459
 40
0.4916179225548807
 40
0.7525957824343074
 40
1.009314886863704
 40
1.251378361926928
 40
1.470783052188952
 40
1.470783052188952
 40
1.470783052188952
 40
1.470783052188952
 10
-27.89668451257148
 20
257.8761827657568
 30
0.0
 10
-27.90176164769827
 20
257.9553907067103
 30
0.0
 10
-27.91227486801715
 20
258.1194063034047
 30
0.0
 10
-27.9865446224203
 20
258.361084999343
 30
0.0
 10
-28.0968312671089
 20
258.5945235295527
 30
0.0
 10
-28.24206412524603
 20
258.8029070090893
 30
0.0
 10
-28.40855054401347
 20
258.9783244625618
 30
0.0
 10
-28.54087684843428
 20
259.0579185956819
 30
0.0
 10
-28.60379129375792
 20
259.0957615601345
 30
0.0
 11
-27.89668451257148
 21
257.8761827657568
 31
0.0
 11
-27.92077877396094
 21
258.1123737047355
 31
0.0
 11
-27.99141885806227
 21
258.3565626403944
 31
0.0
 11
-28.10379142706094
 21
258.5921084954353
 31
0.0
 11
-28.2502379031647
 21
258.8029594610534
 31
0.0
 11
-28.42077864065797
 21
258.9747459105178
 31
0.0
 11
-28.60379129375792
 21
259.0957615601345
 31
0.0
  0
SPLINE
  5
1C0
330
1F
100
AcDbEntity
  8
0
  6
Continuous
 62
     7
100
AcDbSpline
210
0.0
220
0.0
230
1.0
 70
     8
 71
     3
 72
    13
 73
     9
 74
     7
 42
0.000000001
 43
0.0000000001
 44
0.00000001
 40
0.0
 40
0.0
 40
0.0
 40
0.0
 40
0.5869692759098899
 40
1.197122185986092
 40
1.819054132497892
 40
2.440540180121671
 40
3.049385828299757
 40
3.634279664959858
 40
3.634279664959858
 40
3.634279664959858
 40
3.634279664959858
 10
-28.38717607135197
 20
259.6836268544136
 30
0.0
 10
-28.52336973420507
 20
259.8244344556755
 30
0.0
 10
-28.80113631531349
 20
260.1116111721227
 30
0.0
 10
-29.1529347375347
 20
260.6080211873337
 30
0.0
 10
-29.45848074381047
 20
261.1461844395535
 30
0.0
 10
-29.7010444677851
 20
261.715039523342
 30
0.0
 10
-29.8820274973253
 20
262.2946109656305
 30
0.0
 10
-29.94136387595521
 20
262.6885755629677
 30
0.0
 10
-29.97043678009572
 20
262.8816055073439
 30
0.0
 11
-28.38717607135197
 21
259.6836268544136
 31
0.0
 11
-28.78463865740523
 21
260.1155486344458
 31
0.0
 11
-29.14202869283685
 21
260.6100776402935
 31
0.0
 11
-29.44801291834234
 21
261.1515321641116
 31
0.0
 11
-29.69288852854891
 21
261.7227421469254
 31
0.0
 11
-29.86889011807395
 21
262.3055941566253
 31
0.0
 11
-29.97043678009572
 21
262.8816055073439
 31
0.0
  0
SPLINE
  5
1C1
330
1F
100
AcDbEntity
  8
0
  6
Continuous
 62
     7
100
AcDbSpline
210
0.0
220
0.0
230
1.0
 70
     8
 71
     3
 72
    11
 73
     7
 74
     5
 42
0.000000001
 43
0.0000000001
 44
0.00000001
 40
0.0
 40
0.0
 40
0.0
 40
0.0
 40
0.0148266735371458
 40
0.0295317344648366
 40
0.0441384017550873
 40
0.058615115303462
 40
0.058615115303462
 40
0.058615115303462
 40
0.058615115303462
 10
-29.97363668679964
 20
262.9401050590157
 30
0.0
 10
-29.97359875613046
 20
262.9351626309808
 30
0.0
 10
-29.97352319094184
 20
262.9253183143499
 30
0.0
 10
-29.97289467176387
 20
262.910616586784
 30
0.0
 10
-29.97192498382663
 20
262.8960501566454
 30
0.0
 10
-29.97093137304821
 20
262.8864060256303
 30
0.0
 10
-29.97043678009572
 20
262.8816055073439
 30
0.0
 11
-29.97363668679964
 21
262.9401050590157
 31
0.0
 11
-29.97343593829382
 21
262.9252797444575
 31
0.0
 11
-29.97283496304158
 21
262.910586968892
 31
0.0
 11
-29.97183394225499
 21
262.8960146425463
 31
0.0
 11
-29.97043678009572
 21
262.8816055073439
 31
0.0
  0
SPLINE
  5
1C2
330
1F
100
AcDbEntity
  8
0
  6
Continuous
 62
     7
100
AcDbSpline
210
0.0
220
0.0
230
1.0
 70
     8
 71
     3
 72
    11
 73
     7
 74
     5
 42
0.000000001
 43
0.0000000001
 44
0.00000001
 40
0.0
 40
0.0
 40
0.0
 40
0.0
 40
0.1082155080278096
 40
0.2224181746303373
 40
0.3408512078749815
 40
0.4614694722434461
 40
0.4614694722434461
 40
0.4614694722434461
 40
0.4614694722434461
 10
-25.51547098332526
 20
261.119479398427
 30
0.0
 10
-25.48252036759303
 20
261.1342872084332
 30
0.0
 10
-25.41479609627787
 20
261.164722075069
 30
0.0
 10
-25.30462545819307
 20
261.194047383769
 30
0.0
 10
-25.18822727993081
 20
261.2135304505669
 30
0.0
 10
-25.10849031772265
 20
261.2158908985045
 30
0.0
 10
-25.06825738782527
 20
261.2170819036941
 30
0.0
 11
-25.51547098332526
 21
261.119479398427
 31
0.0
 11
-25.41563290405932
 21
261.1612281022827
 31
0.0
 11
-25.3056406911337
 21
261.1919520743785
 31
0.0
 11
-25.18870950742388
 21
261.2107531888145
 31
0.0
 11
-25.06825738782527
 21
261.2170819036941
 31
0.0
  0
SPLINE
  5
1C3
330
1F
100
AcDbEntity
  8
0
  6
Continuous
 62
     7
100
AcDbSpline
210
0.0
220
0.0
230
1.0
 70
     8
 71
     3
 72
    13
 73
     9
 74
     7
 42
0.000000001
 43
0.0000000001
 44
0.00000001
 40
0.0
 40
0.0
 40
0.0
 40
0.0
 40
0.2374167079262028
 40
0.4916179225550479
 40
0.7525957824344232
 40
1.009314886863801
 40
1.251378361927071
 40
1.470783052189156
 40
1.470783052189156
 40
1.470783052189156
 40
1.470783052189156
 10
-23.65404382545216
 20
259.9975031093164
 30
0.0
 10
-23.65912096057896
 20
260.07671105027
 30
0.0
 10
-23.66963418089785
 20
260.2407266469644
 30
0.0
 10
-23.74390393530095
 20
260.4824053429028
 30
0.0
 10
-23.85419057998957
 20
260.7158438731124
 30
0.0
 10
-23.9994234381268
 20
260.9242273526489
 30
0.0
 10
-24.16590985689426
 20
261.0996448061215
 30
0.0
 10
-24.29823616131515
 20
261.1792389392416
 30
0.0
 10
-24.36115060663883
 20
261.2170819036941
 30
0.0
 11
-23.65404382545216
 21
259.9975031093164
 31
0.0
 11
-23.67813808684163
 21
260.2336940482951
 31
0.0
 11
-23.74877817094296
 21
260.4778829839541
 31
0.0
 11
-23.86115073994163
 21
260.713428838995
 31
0.0
 11
-24.00759721604544
 21
260.9242798046131
 31
0.0
 11
-24.17813795353877
 21
261.0960662540774
 31
0.0
 11
-24.36115060663883
 21
261.2170819036941
 31
0.0
  0
SPLINE
  5
1C4
330
1F
100
AcDbEntity
  8
0
  6
Continuous
 62
     7
100
AcDbSpline
210
0.0
220
0.0
230
1.0
 70
    11
 71
     3
 72
    29
 73
    25
 74
    23
 42
0.000000001
 43
0.0000000001
 44
0.00000001
 40
0.0
 40
0.0
 40
0.0
 40
0.0
 40
0.1954604618267379
 40
0.4175346968381299
 40
0.6769521026949313
 40
0.9689748055088812
 40
1.27944182919921
 40
1.589908852875665
 40
1.881931555579461
 40
2.14134896096448
 40
2.363423194099657
 40
2.558883663404804
 40
2.733772342890298
 40
2.928515047637954
 40
3.152858735038823
 40
3.405763343886868
 40
3.678887442168608
 40
3.959858362770064
 40
4.234918971964497
 40
4.491347223598885
 40
4.673804175705328
 40
4.837433974923302
 40
4.984323242625329
 40
5.121069708686532
 40
5.121069708686532
 40
5.121069708686532
 40
5.121069708686532
 10
-25.32815057351183
 20
258.7920396439952
 30
0.0
 10
-25.39155521089557
 20
258.8117464911035
 30
0.0
 10
-25.52699761894802
 20
258.8538434645292
 30
0.0
 10
-25.75347223432661
 20
258.7869293018434
 30
0.0
 10
-25.97090428430387
 20
258.6468097517449
 30
0.0
 10
-26.1699341379782
 20
258.4354866480604
 30
0.0
 10
-26.3317808744695
 20
258.1758773082346
 30
0.0
 10
-26.44249313315669
 20
257.8903684929693
 30
0.0
 10
-26.49177252105977
 20
257.6050738655377
 30
0.0
 10
-26.47452138569115
 20
257.3448291896243
 30
0.0
 10
-26.38881826910966
 20
257.1302076004832
 30
0.0
 10
-26.23605248023897
 20
256.9916394416629
 30
0.0
 10
-26.04558051514416
 20
256.9490690176569
 30
0.0
 10
-25.8472478159757
 20
256.9886060981043
 30
0.0
 10
-25.64864426626956
 20
257.0975475118281
 30
0.0
 10
-25.46143257466347
 20
257.2661203219362
 30
0.0
 10
-25.29832020975187
 20
257.4818248633812
 30
0.0
 10
-25.1711453553715
 20
257.7287088862288
 30
0.0
 10
-25.08937449933753
 20
257.988358705768
 30
0.0
 10
-25.06103537970101
 20
258.2262979773705
 30
0.0
 10
-25.07797044926379
 20
258.4279657158712
 30
0.0
 10
-25.12788656168129
 20
258.5854641498189
 30
0.0
 10
-25.20919713871447
 20
258.715247943926
 30
0.0
 10
-25.28945611591881
 20
258.7670600075187
 30
0.0
 10
-25.32815057351183
 20
258.7920396439952
 30
0.0
 11
-25.32815057351183
 21
258.7920396439952
 31
0.0
 11
-25.51929454724527
 21
258.8328903057131
 31
0.0
 11
-25.7355040117863
 21
258.7821908715699
 31
0.0
 11
-25.9556153266216
 21
258.6449013985739
 31
0.0
 11
-26.15808267532395
 21
258.434463208964
 31
0.0
 11
-26.32308629030252
 21
258.1714735136407
 31
0.0
 11
-26.43447587757402
 21
257.8816768044638
 31
0.0
 11
-26.48134602004062
 21
257.5934400117359
 31
0.0
 11
-26.4591108095363
 21
257.33497727607
 31
0.0
 11
-26.36994467812615
 21
257.1315900439513
 31
0.0
 11
-26.2225777645117
 21
257.0031852619953
 31
0.0
 11
-26.05253376489566
 21
256.9623063118434
 31
0.0
 11
-25.86060337589902
 21
256.9952827725991
 31
0.0
 11
-25.66194203134999
 21
257.0995121367345
 31
0.0
 11
-25.47223693996182
 21
257.2667626061633
 31
0.0
 11
-25.30646843808461
 21
257.4838284414834
 31
0.0
 11
-25.17772576695609
 21
257.7335682718225
 31
0.0
 11
-25.09617590378112
 21
257.9962619309506
 31
0.0
 11
-25.06825738782527
 21
258.2511658435885
 31
0.0
 11
-25.08553577138547
 21
258.4328028353368
 31
0.0
 11
-25.13652625294196
 21
258.5882849301885
 31
0.0
 11
-25.21873715789235
 21
258.7100134130174
 31
0.0
 11
-25.32815057351183
 21
258.7920396439952
 31
0.0
  0
SPLINE
  5
1C5
330
1F
100
AcDbEntity
  8
0
  6
Continuous
 62
     7
100
AcDbSpline
210
0.0
220
0.0
230
1.0
 70
     8
 71
     3
 72
    11
 73
     7
 74
     5
 42
0.000000001
 43
0.0000000001
 44
0.00000001
 40
0.0
 40
0.0
 40
0.0
 40
0.0
 40
0.1082155080278523
 40
0.2224181746304055
 40
0.3408512078750582
 40
0.4614694722436719
 40
0.4614694722436719
 40
0.4614694722436719
 40
0.4614694722436719
 10
-33.0619569972323
 20
261.8044020949478
 30
0.0
 10
-33.09490761296455
 20
261.8192099049541
 30
0.0
 10
-33.16263188427974
 20
261.8496447715896
 30
0.0
 10
-33.27280252236453
 20
261.87897008029
 30
0.0
 10
-33.38920070062687
 20
261.8984531470876
 30
0.0
 10
-33.46893766283509
 20
261.9008135950253
 30
0.0
 10
-33.50917059273252
 20
261.9020046002149
 30
0.0
 11
-33.0619569972323
 21
261.8044020949478
 31
0.0
 11
-33.16179507649829
 21
261.8461507988035
 31
0.0
 11
-33.27178728942391
 21
261.8768747708993
 31
0.0
 11
-33.38871847313376
 21
261.8956758853353
 31
0.0
 11
-33.50917059273252
 21
261.9020046002149
 31
0.0
  0
SPLINE
  5
1C6
330
1F
100
AcDbEntity
  8
0
  6
Continuous
 62
     7
100
AcDbSpline
210
0.0
220
0.0
230
1.0
 70
     8
 71
     3
 72
    13
 73
     9
 74
     7
 42
0.000000001
 43
0.0000000001
 44
0.00000001
 40
0.0
 40
0.0
 40
0.0
 40
0.0
 40
0.0506948680636385
 40
0.0944401393145893
 40
0.1294776769998219
 40
0.1576795109469639
 40
0.1920007771883805
 40
0.2371246799866058
 40
0.2371246799866058
 40
0.2371246799866058
 40
0.2371246799866058
 10
-41.85426097817094
 20
266.8837526502837
 30
0.0
 10
-41.87094337088502
 20
266.8867666629791
 30
0.0
 10
-41.90202121753809
 20
266.8923815205957
 30
0.0
 10
-41.94174080980865
 20
266.9103897129382
 30
0.0
 10
-41.9697269488103
 20
266.9337225973293
 30
0.0
 10
-41.98209863051481
 20
266.9662870863062
 30
0.0
 10
-41.96542828929171
 20
267.0021764599495
 30
0.0
 10
-41.9421473254484
 20
267.0155621889646
 30
0.0
 10
-41.92892401402082
 20
267.0231651184856
 30
0.0
 11
-41.85426097817094
 21
266.8837526502837
 31
0.0
 11
-41.90370113178265
 21
266.8949616185712
 31
0.0
 11
-41.94331469548331
 21
266.9135200279883
 31
0.0
 11
-41.96889870313585
 21
266.9374592803882
 31
0.0
 11
-41.97773955048967
 21
266.9642395533866
 31
0.0
 11
-41.96505233773304
 21
266.9961297424549
 31
0.0
 11
-41.92892401402082
 21
267.0231651184856
 31
0.0
  0
SPLINE
  5
1C7
330
1F
100
AcDbEntity
  8
0
  6
Continuous
 62
     7
100
AcDbSpline
210
0.0
220
0.0
230
1.0
 70
     8
 71
     3
 72
    17
 73
    13
 74
    11
 42
0.000000001
 43
0.0000000001
 44
0.00000001
 40
0.0
 40
0.0
 40
0.0
 40
0.0
 40
0.0506948606466096
 40
0.0944401333538614
 40
0.129477672806972
 40
0.1576795080887459
 40
0.1839035889163581
 40
0.2158494281801562
 40
0.2554195516294063
 40
0.3015299332027632
 40
0.3515191998082044
 40
0.4020086510240125
 40
0.4020086510240125
 40
0.4020086510240125
 40
0.4020086510240125
 10
-41.02451612207392
 20
266.9450062693991
 30
0.0
 10
-41.00783337338267
 20
266.9419920244994
 30
0.0
 10
-40.97675485978346
 20
266.936376739567
 30
0.0
 10
-40.93703946923467
 20
266.9183712739126
 30
0.0
 10
-40.9090415729778
 20
266.8950307592588
 30
0.0
 10
-40.89772987178864
 20
266.8651905415009
 30
0.0
 10
-40.90783711546126
 20
266.8363135775958
 30
0.0
 10
-40.93239203430232
 20
266.8138028745567
 30
0.0
 10
-40.96781586665445
 20
266.7962343365673
 30
0.0
 10
-41.01178425433608
 20
266.784785431188
 30
0.0
 10
-41.0606639502281
 20
266.7796555736167
 30
0.0
 10
-41.09409405229479
 20
266.7825686618255
 30
0.0
 10
-41.11089231076971
 20
266.7840324631935
 30
0.0
 11
-41.02451612207392
 21
266.9450062693991
 31
0.0
 11
-40.97507596846209
 21
266.9337973011118
 31
0.0
 11
-40.93546240476138
 21
266.9152388916947
 31
0.0
 11
-40.90987839710884
 21
266.8912996392948
 31
0.0
 11
-40.90103754975507
 21
266.8645193662962
 31
0.0
 11
-40.90875417526003
 21
266.8394563218309
 31
0.0
 11
-40.9311890878501
 21
266.8167140385366
 31
0.0
 11
-40.96626523391554
 21
266.7983985049798
 31
0.0
 11
-41.01073431914114
 21
266.78620556071
 31
0.0
 11
-41.06047878871518
 21
266.781264436155
 31
0.0
 11
-41.11089231076971
 21
266.7840324631935
 31
0.0
  0
SPLINE
  5
1C8
330
1F
100
AcDbEntity
  8
0
  6
Continuous
 62
     7
100
AcDbSpline
210
0.0
220
0.0
230
1.0
 70
     8
 71
     3
 72
    15
 73
    11
 74
     9
 42
0.000000001
 43
0.0000000001
 44
0.00000001
 40
0.0
 40
0.0
 40
0.0
 40
0.0
 40
0.040128007115836
 40
0.0798561047683168
 40
0.1165002044325038
 40
0.1479463993167525
 40
0.173334171276538
 40
0.1941758050590129
 40
0.2214577324925882
 40
0.2573266585935889
 40
0.2573266585935889
 40
0.2573266585935889
 40
0.2573266585935889
 10
-40.29370414652476
 20
268.2512860178977
 30
0.0
 10
-40.28035306876218
 20
268.2524473740023
 30
0.0
 10
-40.25378396722784
 20
268.2547584984411
 30
0.0
 10
-40.21493771793119
 20
268.2506770045077
 30
0.0
 10
-40.1799970478348
 20
268.2415746436727
 30
0.0
 10
-40.1518455950504
 20
268.2276093738564
 30
0.0
 10
-40.13233766869736
 20
268.209718739315
 30
0.0
 10
-40.12372359871286
 20
268.1851374526951
 30
0.0
 10
-40.13671327823236
 20
268.1571498227155
 30
0.0
 10
-40.15522235614402
 20
268.1465068291068
 30
0.0
 10
-40.1657352926627
 20
268.1404617395601
 30
0.0
 11
-40.29370414652476
 21
268.2512860178977
 31
0.0
 11
-40.25363616743209
 21
268.2534800522991
 31
0.0
 11
-40.21410310449244
 21
268.2495482896219
 31
0.0
 11
-40.17876444464174
 21
268.2398545130572
 31
0.0
 11
-40.15089118816769
 21
268.2252961849429
 31
0.0
 11
-40.13306369634216
 21
268.2072207967618
 31
0.0
 11
-40.12693188923834
 21
268.1873015909666
 31
0.0
 11
-40.1370169373713
 21
268.1619521231291
 31
0.0
 11
-40.1657352926627
 21
268.1404617395601
 31
0.0
  0
SPLINE
  5
1C9
330
1F
100
AcDbEntity
  8
0
  6
Continuous
 62
     7
100
AcDbSpline
210
0.0
220
0.0
230
1.0
 70
     8
 71
     3
 72
    17
 73
    13
 74
    11
 42
0.000000001
 43
0.0000000001
 44
0.00000001
 40
0.0
 40
0.0
 40
0.0
 40
0.0
 40
0.0115215000425768
 40
0.0225053191402292
 40
0.0537391023628116
 40
0.0936831696444444
 40
0.1439613294916365
 40
0.2014932053909719
 40
0.2611053604037099
 40
0.3171234574354302
 40
0.3647612204635599
 40
0.4018922375885511
 40
0.4018922375885511
 40
0.4018922375885511
 40
0.4018922375885511
 10
-39.73769241275647
 20
267.4706324122
 30
0.0
 10
-39.7360820696527
 20
267.4671273427343
 30
0.0
 10
-39.73293654001463
 20
267.460280775493
 30
0.0
 10
-39.73059603126337
 20
267.4422157134921
 30
0.0
 10
-39.74201333760957
 20
267.4150384202386
 30
0.0
 10
-39.77552326084581
 20
267.3905289039923
 30
0.0
 10
-39.82195947720175
 20
267.3731080773721
 30
0.0
 10
-39.87745299798441
 20
267.3646960217092
 30
0.0
 10
-39.93559611464651
 20
267.3659186197081
 30
0.0
 10
-39.98869990600657
 20
267.3773474810021
 30
0.0
 10
-40.0335721151677
 20
267.3955921173231
 30
0.0
 10
-40.05169967074068
 20
267.417742045584
 30
0.0
 10
-40.05964002516805
 20
267.4274443178521
 30
0.0
 11
-39.73769241275647
 21
267.4706324122
 31
0.0
 11
-39.73342889717821
 21
267.4599287855233
 31
0.0
 11
-39.73199955229563
 21
267.449038365026
 31
0.0
 11
-39.74267982739657
 21
267.4196873713889
 31
0.0
 11
-39.77335078104909
 21
267.3940978999789
 31
0.0
 11
-39.82008257491728
 21
267.3755497799392
 31
0.0
 11
-39.87688537787642
 21
267.3664197037875
 31
0.0
 11
-39.93647968533227
 21
267.3678783080018
 31
0.0
 11
-39.99122794920993
 21
267.3797381055183
 31
0.0
 11
-40.03411319617331
 21
267.4004796530681
 31
0.0
 11
-40.05964002516805
 21
267.4274443178521
 31
0.0
  0
SPLINE
  5
1CA
330
1F
100
AcDbEntity
  8
0
  6
Continuous
 62
     7
100
AcDbSpline
210
0.0
220
0.0
230
1.0
 70
     8
 71
     3
 72
    13
 73
     9
 74
     7
 42
0.000000001
 43
0.0000000001
 44
0.00000001
 40
0.0
 40
0.0
 40
0.0
 40
0.0
 40
0.0358690292415207
 40
0.081628849610972
 40
0.1354906337431216
 40
0.1931999457385353
 40
0.2496003848127087
 40
0.2998288733399188
 40
0.2998288733399188
 40
0.2998288733399188
 40
0.2998288733399188
 10
-39.93713278693735
 20
267.8423167459005
 30
0.0
 10
-39.94474301137172
 20
267.8517326775062
 30
0.0
 10
-39.96206197251158
 20
267.873160945363
 30
0.0
 10
-40.0049369226721
 20
267.8913152389437
 30
0.0
 10
-40.05596977872962
 20
267.9031586329368
 30
0.0
 10
-40.1122251781525
 20
267.9051496917542
 30
0.0
 10
-40.16718909925088
 20
267.8990622208436
 30
0.0
 10
-40.2003411581629
 20
267.8858649569181
 30
0.0
 10
-40.21595772334081
 20
267.8796482638255
 30
0.0
 11
-39.93713278693735
 21
267.8423167459005
 31
0.0
 11
-39.96160699014388
 21
267.8685388909443
 31
0.0
 11
-40.00253968927836
 21
267.8889955788906
 31
0.0
 11
-40.05499594527026
 21
267.9012198518
 31
0.0
 11
-40.11265028540947
 21
267.9037381472784
 31
0.0
 11
-40.16855093197935
 21
267.8962463534608
 31
0.0
 11
-40.21595772334081
 21
267.8796482638255
 31
0.0
  0
SPLINE
  5
1CB
330
1F
100
AcDbEntity
  8
0
  6
Continuous
 62
     7
100
AcDbSpline
210
0.0
220
0.0
230
1.0
 70
     8
 71
     3
 72
    15
 73
    11
 74
     9
 42
0.000000001
 43
0.0000000001
 44
0.00000001
 40
0.0
 40
0.0
 40
0.0
 40
0.0
 40
0.0570084249936312
 40
0.1211034947195325
 40
0.1851985632147657
 40
0.2422069826324436
 40
0.2873308897740446
 40
0.3216521553539143
 40
0.3559734221273018
 40
0.4010973233964218
 40
0.4010973233964218
 40
0.4010973233964218
 40
0.4010973233964218
 10
-40.6010363478897
 20
267.0978533005622
 30
0.0
 10
-40.58322773451156
 20
267.0909795575781
 30
0.0
 10
-40.54539673712259
 20
267.0763776190914
 30
0.0
 10
-40.48309276717621
 20
267.0716939350155
 30
0.0
 10
-40.42132302747513
 20
267.0771325524346
 30
0.0
 10
-40.3680634914901
 20
267.0940120203042
 30
0.0
 10
-40.32896792774176
 20
267.1191651925513
 30
0.0
 10
-40.31116677280237
 20
267.156702871211
 30
0.0
 10
-40.32884528402942
 20
267.1947444032349
 30
0.0
 10
-40.35211638143716
 20
267.2081118715985
 30
0.0
 10
-40.36533408749426
 20
267.21570443076
 30
0.0
 11
-40.6010363478897
 21
267.0978533005622
 31
0.0
 11
-40.54696559582833
 21
267.0797891387062
 31
0.0
 11
-40.48318521769198
 21
267.0734455323279
 31
0.0
 11
-40.41940483955562
 21
267.0797891387062
 31
0.0
 11
-40.36533408749415
 21
267.0978533005623
 31
0.0
 11
-40.32920576378194
 21
267.1248886765929
 31
0.0
 11
-40.31651855102541
 21
267.1567788656611
 31
0.0
 11
-40.32920576378196
 21
267.1886690547293
 31
0.0
 11
-40.36533408749426
 21
267.21570443076
 31
0.0
  0
SPLINE
  5
1CC
330
1F
100
AcDbEntity
  8
0
  6
Continuous
 62
     7
100
AcDbSpline
210
0.0
220
0.0
230
1.0
 70
     8
 71
     3
 72
    14
 73
    10
 74
     8
 42
0.000000001
 43
0.0000000001
 44
0.00000001
 40
0.0
 40
0.0
 40
0.0
 40
0.0
 40
0.0057530002249718
 40
0.0112381183973675
 40
0.0243994454152514
 40
0.0402503748212966
 40
0.0600966606760581
 40
0.0954428651198224
 40
0.1332735916091882
 40
0.1332735916091882
 40
0.1332735916091882
 40
0.1332735916091882
 10
-41.86004146872483
 20
267.9335953388259
 30
0.0
 10
-41.86084515953842
 20
267.9318444589292
 30
0.0
 10
-41.8624151107766
 20
267.928424224497
 30
0.0
 10
-41.86346675964899
 20
267.9202288934853
 30
0.0
 10
-41.85950337522464
 20
267.9087279952633
 30
0.0
 10
-41.84720510662982
 20
267.8974461411496
 30
0.0
 10
-41.82583036470358
 20
267.8869203333242
 30
0.0
 10
-41.79502666093587
 20
267.8801511523941
 30
0.0
 10
-41.77060487591014
 20
267.8817419136175
 30
0.0
 10
-41.75797939610879
 20
267.8825643025178
 30
0.0
 11
-41.86004146872483
 21
267.9335953388259
 31
0.0
 11
-41.86216805463795
 21
267.9282498032665
 31
0.0
 11
-41.86288098320074
 21
267.9228112119466
 31
0.0
 11
-41.85899546568163
 21
267.9102365036338
 31
0.0
 11
-41.84786478944044
 21
267.8989511143211
 31
0.0
 11
-41.83027776895142
 21
267.8897548227678
 31
0.0
 11
-41.795805051953
 21
267.8819454721743
 31
0.0
 11
-41.75797939610879
 21
267.8825643025178
 31
0.0
  0
SPLINE
  5
1CD
330
1F
100
AcDbEntity
  8
0
  6
Continuous
 62
     7
100
AcDbSpline
210
0.0
220
0.0
230
1.0
 70
     8
 71
     3
 72
    15
 73
    11
 74
     9
 42
0.000000001
 43
0.0000000001
 44
0.00000001
 40
0.0
 40
0.0
 40
0.0
 40
0.0
 40
0.0570084249937503
 40
0.1211034947196586
 40
0.1851985632148904
 40
0.2422069826325391
 40
0.2873308897741915
 40
0.321652155354032
 40
0.3559734221274881
 40
0.4010973233966079
 40
0.4010973233966079
 40
0.4010973233966079
 40
0.4010973233966079
 10
-42.83516907089586
 20
267.7485538920254
 30
0.0
 10
-42.85297768427404
 20
267.7416801490414
 30
0.0
 10
-42.89080868166302
 20
267.7270782105546
 30
0.0
 10
-42.95311265160949
 20
267.7223945264788
 30
0.0
 10
-43.01488239131054
 20
267.7278331438978
 30
0.0
 10
-43.06814192729551
 20
267.7447126117675
 30
0.0
 10
-43.10723749104393
 20
267.7698657840147
 30
0.0
 10
-43.12503864598346
 20
267.8074034626741
 30
0.0
 10
-43.10736013475631
 20
267.8454449946982
 30
0.0
 10
-43.0840890373486
 20
267.8588124630618
 30
0.0
 10
-43.07087133129153
 20
267.8664050222233
 30
0.0
 11
-42.83516907089586
 21
267.7485538920254
 31
0.0
 11
-42.88923982295734
 21
267.7304897301694
 31
0.0
 11
-42.95302020109369
 21
267.7241461237911
 31
0.0
 11
-43.01680057923005
 21
267.7304897301694
 31
0.0
 11
-43.07087133129147
 21
267.7485538920256
 31
0.0
 11
-43.10699965500378
 21
267.7755892680562
 31
0.0
 11
-43.11968686776038
 21
267.8074794571243
 31
0.0
 11
-43.10699965500379
 21
267.8393696461926
 31
0.0
 11
-43.07087133129153
 21
267.8664050222233
 31
0.0
  0
SPLINE
  5
1CE
330
1F
100
AcDbEntity
  8
0
  6
Continuous
 62
     7
100
AcDbSpline
210
0.0
220
0.0
230
1.0
 70
     8
 71
     3
 72
    15
 73
    11
 74
     9
 42
0.000000001
 43
0.0000000001
 44
0.00000001
 40
0.0
 40
0.0
 40
0.0
 40
0.0
 40
0.0451239012691143
 40
0.0794451680425017
 40
0.1137664336223715
 40
0.1588903407640066
 40
0.2158987601816778
 40
0.2799938286769237
 40
0.3440888984028178
 40
0.4010973233964805
 40
0.4010973233964805
 40
0.4010973233964805
 40
0.4010973233964805
 10
-42.67229268142194
 20
267.122885305576
 30
0.0
 10
-42.68551038747904
 20
267.1152927464144
 30
0.0
 10
-42.70878148488676
 20
267.1019252780509
 30
0.0
 10
-42.72645999611386
 20
267.063883746027
 30
0.0
 10
-42.70865884117442
 20
267.0263460673674
 30
0.0
 10
-42.66956327742613
 20
267.00119289512
 30
0.0
 10
-42.61630374144107
 20
266.9843134272506
 30
0.0
 10
-42.55453400174001
 20
266.9788748098313
 30
0.0
 10
-42.49223003179357
 20
266.9835584939073
 30
0.0
 10
-42.45439903440465
 20
266.9981604323941
 30
0.0
 10
-42.43659042102649
 20
267.0050341753781
 30
0.0
 11
-42.67229268142194
 21
267.122885305576
 31
0.0
 11
-42.70842100513424
 21
267.0958499295453
 31
0.0
 11
-42.72110821789079
 21
267.0639597404771
 31
0.0
 11
-42.70842100513426
 21
267.0320695514089
 31
0.0
 11
-42.67229268142205
 21
267.0050341753782
 31
0.0
 11
-42.61822192936059
 21
266.9869700135221
 31
0.0
 11
-42.55444155122422
 21
266.9806264071438
 31
0.0
 11
-42.49066117308787
 21
266.9869700135221
 31
0.0
 11
-42.43659042102649
 21
267.0050341753781
 31
0.0
  0
SPLINE
  5
1CF
330
1F
100
AcDbEntity
  8
0
  6
Continuous
 62
     7
100
AcDbSpline
210
0.0
220
0.0
230
1.0
 70
     8
 71
     3
 72
    17
 73
    13
 74
    11
 42
0.000000001
 43
0.0000000001
 44
0.00000001
 40
0.0
 40
0.0
 40
0.0
 40
0.0
 40
0.0115215000425424
 40
0.0225053191402447
 40
0.05373910236281
 40
0.0936831696445467
 40
0.1439613294917575
 40
0.2014932053910818
 40
0.2611053604038325
 40
0.3171234574356501
 40
0.3647612204637534
 40
0.4018922375887006
 40
0.4018922375887006
 40
0.4018922375887006
 40
0.4018922375887006
 10
-43.18669650596485
 20
267.2781950581667
 30
0.0
 10
-43.18508616286105
 20
267.274689988701
 30
0.0
 10
-43.18194063322292
 20
267.2678434214598
 30
0.0
 10
-43.17960012447183
 20
267.2497783594587
 30
0.0
 10
-43.19101743081789
 20
267.2226010662054
 30
0.0
 10
-43.22452735405407
 20
267.1980915499587
 30
0.0
 10
-43.27096357041013
 20
267.1806707233388
 30
0.0
 10
-43.32645709119279
 20
267.1722586676758
 30
0.0
 10
-43.38460020785493
 20
267.1734812656747
 30
0.0
 10
-43.43770399921504
 20
267.1849101269688
 30
0.0
 10
-43.48257620837612
 20
267.2031547632898
 30
0.0
 10
-43.50070376394908
 20
267.2253046915508
 30
0.0
 10
-43.50864411837642
 20
267.2350069638188
 30
0.0
 11
-43.18669650596485
 21
267.2781950581667
 31
0.0
 11
-43.18243299038654
 21
267.26749143149
 31
0.0
 11
-43.18100364550401
 21
267.2566010109927
 31
0.0
 11
-43.1916839206049
 21
267.2272500173556
 31
0.0
 11
-43.22235487425741
 21
267.2016605459454
 31
0.0
 11
-43.26908666812565
 21
267.1831124259058
 31
0.0
 11
-43.32588947108479
 21
267.1739823497542
 31
0.0
 11
-43.38548377854066
 21
267.1754409539684
 31
0.0
 11
-43.44023204241842
 21
267.1873007514849
 31
0.0
 11
-43.48311728938174
 21
267.2080422990348
 31
0.0
 11
-43.50864411837642
 21
267.2350069638188
 31
0.0
  0
SPLINE
  5
1D0
330
1F
100
AcDbEntity
  8
0
  6
Continuous
 62
     7
100
AcDbSpline
210
0.0
220
0.0
230
1.0
 70
     8
 71
     3
 72
    15
 73
    11
 74
     9
 42
0.000000001
 43
0.0000000001
 44
0.00000001
 40
0.0
 40
0.0
 40
0.0
 40
0.0
 40
0.0453159248124106
 40
0.0962650090568047
 40
0.1472140926948468
 40
0.1925300096622961
 40
0.2283989452901589
 40
0.2556808765897969
 40
0.2644011051013424
 40
0.2735472141019061
 40
0.2735472141019061
 40
0.2735472141019061
 40
0.2735472141019061
 10
-41.34424659464037
 20
268.7297173905488
 30
0.0
 10
-41.33009039698694
 20
268.7351812245204
 30
0.0
 10
-41.30001826154227
 20
268.7467880848304
 30
0.0
 10
-41.25049559639866
 20
268.7505128098325
 30
0.0
 10
-41.20138488524188
 20
268.7461834108184
 30
0.0
 10
-41.15908019468866
 20
268.7327854154461
 30
0.0
 10
-41.12791884430776
 20
268.7127386316702
 30
0.0
 10
-41.11685569100042
 20
268.6891382722966
 30
0.0
 10
-41.11882761929875
 20
268.6739512094537
 30
0.0
 10
-41.12132141498142
 20
268.668515568228
 30
0.0
 10
-41.12259803796519
 20
268.6657329636178
 30
0.0
 11
-41.34424659464037
 21
268.7297173905488
 31
0.0
 11
-41.30126582750219
 21
268.7440765681945
 31
0.0
 11
-41.25056689182708
 21
268.749119092261
 31
0.0
 11
-41.19986795615201
 21
268.7440765681945
 31
0.0
 11
-41.15688718901379
 21
268.7297173905489
 31
0.0
 11
-41.12816883372244
 21
268.7082270069798
 31
0.0
 11
-41.11808378558953
 21
268.6828775391422
 31
0.0
 11
-41.11921719747576
 21
268.6742312814829
 31
0.0
 11
-41.12259803796519
 21
268.6657329636178
 31
0.0
  0
SPLINE
  5
1D1
330
1F
100
AcDbEntity
  8
0
  6
Continuous
 62
     2
100
AcDbSpline
210
0.0
220
0.0
230
1.0
 70
     8
 71
     3
 72
    13
 73
     9
 74
     7
 42
0.000000001
 43
0.0000000001
 44
0.00000001
 40
0.0
 40
0.0
 40
0.0
 40
0.0
 40
0.6582140732376274
 40
1.384404504230173
 40
2.154561823308096
 40
2.93749540579356
 40
3.700099050707917
 40
4.412349174002221
 40
4.412349174002221
 40
4.412349174002221
 40
4.412349174002221
 10
-37.51333673670843
 20
258.388654778948
 30
0.0
 10
-37.70208007338238
 20
258.2751258851674
 30
0.0
 10
-38.09905900561127
 20
258.0363435094286
 30
0.0
 10
-38.5985182574419
 20
257.5100911342404
 30
0.0
 10
-39.03421683663836
 20
256.8849406942615
 30
0.0
 10
-39.36507676736232
 20
256.1846250992386
 30
0.0
 10
-39.58788604370243
 20
255.459589011859
 30
0.0
 10
-39.61942567489817
 20
254.9675422185137
 30
0.0
 10
-39.6346570802682
 20
254.7299183958148
 30
0.0
 11
-37.51333673670843
 21
258.388654778948
 31
0.0
 11
-38.06237469600843
 21
258.0256078300979
 31
0.0
 11
-38.57399690848831
 21
257.5102484817048
 31
0.0
 11
-39.0133363367999
 21
256.8776955848503
 31
0.0
 11
-39.35045404379593
 21
256.1710580197276
 31
0.0
 11
-39.56237429609982
 21
255.4384912127509
 31
0.0
 11
-39.6346570802682
 21
254.7299183958148
 31
0.0
  0
SPLINE
  5
1D2
330
1F
100
AcDbEntity
  8
0
  6
Continuous
 62
     2
100
AcDbSpline
210
0.0
220
0.0
230
1.0
 70
     8
 71
     3
 72
    13
 73
     9
 74
     7
 42
0.000000001
 43
0.0000000001
 44
0.00000001
 40
0.0
 40
0.0
 40
0.0
 40
0.0
 40
0.7122501232943041
 40
1.474853768208659
 40
2.257787350694122
 40
3.027944669771982
 40
3.754135100764517
 40
4.412349174002068
 40
4.412349174002068
 40
4.412349174002068
 40
4.412349174002068
 10
-30.7251116373177
 20
254.7299183958148
 30
0.0
 10
-30.74034304268772
 20
254.9675422185137
 30
0.0
 10
-30.77188267388349
 20
255.459589011859
 30
0.0
 10
-30.99469195022355
 20
256.1846250992386
 30
0.0
 10
-31.32555188094756
 20
256.8849406942614
 30
0.0
 10
-31.76125046014385
 20
257.5100911342403
 30
0.0
 10
-32.26070971197449
 20
258.0363435094284
 30
0.0
 10
-32.65768864420333
 20
258.2751258851676
 30
0.0
 10
-32.84643198087724
 20
258.388654778948
 30
0.0
 11
-30.7251116373177
 21
254.7299183958148
 31
0.0
 11
-30.79739442148608
 21
255.4384912127509
 31
0.0
 11
-31.00931467378996
 21
256.1710580197276
 31
0.0
 11
-31.34643238078599
 21
256.8776955848503
 31
0.0
 11
-31.78577180909747
 21
257.5102484817048
 31
0.0
 11
-32.29739402157733
 21
258.0256078300979
 31
0.0
 11
-32.84643198087724
 21
258.388654778948
 31
0.0
  0
SPLINE
  5
1D3
330
1F
100
AcDbEntity
  8
0
  6
Continuous
 62
     2
100
AcDbSpline
210
0.0
220
0.0
230
1.0
 70
     8
 71
     3
 72
    13
 73
     9
 74
     7
 42
0.000000001
 43
0.0000000001
 44
0.00000001
 40
0.0
 40
0.0
 40
0.0
 40
0.0
 40
0.7320277601530112
 40
1.544814636070269
 40
2.400765908032464
 40
3.256717179994701
 40
4.069504055911938
 40
4.801531816064817
 40
4.801531816064817
 40
4.801531816064817
 40
4.801531816064817
 10
-32.84643198087724
 20
258.388654778948
 30
0.0
 10
-33.07171443890401
 20
258.293370559875
 30
0.0
 10
-33.54713307917145
 20
258.092290144802
 30
0.0
 10
-34.33860933122723
 20
257.9433896890247
 30
0.0
 10
-35.17988435879291
 20
257.8858857119411
 30
0.0
 10
-36.02115938635859
 20
257.9433896890248
 30
0.0
 10
-36.81263563841433
 20
258.0922901448018
 30
0.0
 10
-37.28805427868171
 20
258.293370559875
 30
0.0
 10
-37.51333673670843
 20
258.388654778948
 30
0.0
 11
-32.84643198087724
 21
258.388654778948
 31
0.0
 11
-33.52988479869246
 21
258.1264394326255
 31
0.0
 11
-34.32578150995465
 21
257.9616033545287
 31
0.0
 11
-35.1798843587929
 21
257.9053814078052
 31
0.0
 11
-36.03398720763118
 21
257.9616033545287
 31
0.0
 11
-36.82988391889336
 21
258.1264394326255
 31
0.0
 11
-37.51333673670843
 21
258.388654778948
 31
0.0
  0
SPLINE
  5
1D4
330
1F
100
AcDbEntity
  8
0
  6
Continuous
 62
     2
100
AcDbSpline
210
0.0
220
0.0
230
1.0
 70
     8
 71
     3
 72
    15
 73
    11
 74
     9
 42
0.000000001
 43
0.0000000001
 44
0.00000001
 40
0.0
 40
0.0
 40
0.0
 40
0.0
 40
1.031928834604678
 40
2.159342603700576
 40
3.354695905154315
 40
4.585254303184186
 40
5.815812701214043
 40
7.011166002667682
 40
8.138579771763602
 40
9.170508606368365
 40
9.170508606368365
 40
9.170508606368365
 40
9.170508606368365
 10
-30.7251116373177
 20
254.7299183958148
 30
0.0
 10
-31.04018778406125
 20
254.5906277981161
 30
0.0
 10
-31.69949424987373
 20
254.2991579820348
 30
0.0
 10
-32.78807289723872
 20
254.0240836268196
 30
0.0
 10
-33.96027301300203
 20
253.8459013348234
 30
0.0
 10
-35.17988435879293
 20
253.7877263934564
 30
0.0
 10
-36.39949570458384
 20
253.8459013348234
 30
0.0
 10
-37.5716958203471
 20
254.0240836268196
 30
0.0
 10
-38.66027446771209
 20
254.2991579820349
 30
0.0
 10
-39.31958093352461
 20
254.5906277981161
 30
0.0
 10
-39.6346570802682
 20
254.7299183958148
 30
0.0
 11
-30.7251116373177
 21
254.7299183958148
 31
0.0
 11
-31.67979205678107
 21
254.3381756020264
 31
0.0
 11
-32.76897873489281
 21
254.0470842291419
 31
0.0
 11
-33.95081538838687
 21
253.867831269818
 31
0.0
 11
-35.17988435879295
 21
253.8073047565524
 31
0.0
 11
-36.40895332919901
 21
253.867831269818
 31
0.0
 11
-37.59078998269297
 21
254.0470842291419
 31
0.0
 11
-38.67997666080473
 21
254.3381756020265
 31
0.0
 11
-39.6346570802682
 21
254.7299183958148
 31
0.0
  0
SPLINE
  5
1D5
330
1F
100
AcDbEntity
  8
0
  6
Continuous
 62
     2
100
AcDbSpline
210
0.0
220
0.0
230
1.0
 70
     8
 71
     3
 72
    11
 73
     7
 74
     5
 42
0.000000001
 43
0.0000000001
 44
0.00000001
 40
0.0
 40
0.0
 40
0.0
 40
0.0
 40
0.3160005357151403
 40
0.646544354517227
 40
1.002877952728462
 40
1.391392288616545
 40
1.391392288616545
 40
1.391392288616545
 40
1.391392288616545
 10
-21.60529625776576
 20
265.7570599868158
 30
0.0
 10
-21.70373854155986
 20
265.7964757862625
 30
0.0
 10
-21.9051537199327
 20
265.8771214032276
 30
0.0
 10
-22.24476623653992
 20
265.8884997465005
 30
0.0
 10
-22.60051290377178
 20
265.825951451445
 30
0.0
 10
-22.82818353845468
 20
265.7246787159193
 30
0.0
 10
-22.94693704426572
 20
265.6718546251693
 30
0.0
 11
-21.60529625776576
 21
265.7570599868158
 31
0.0
 11
-21.90481049556347
 21
265.8577950910517
 31
0.0
 11
-22.23478713434031
 21
265.8771506042388
 31
0.0
 11
-22.58558068546984
 21
265.8145605152898
 31
0.0
 11
-22.94693704426572
 21
265.6718546251693
 31
0.0
  0
SPLINE
  5
1D6
330
1F
100
AcDbEntity
  8
0
  6
Continuous
 62
     2
100
AcDbSpline
210
0.0
220
0.0
230
1.0
 70
     8
 71
     3
 72
    13
 73
     9
 74
     7
 42
0.000000001
 43
0.0000000001
 44
0.00000001
 40
0.0
 40
0.0
 40
0.0
 40
0.0
 40
0.6259428759470961
 40
1.142708414495881
 40
1.584315192267691
 40
2.025921970039556
 40
2.542687508588341
 40
3.16863038453553
 40
3.16863038453553
 40
3.16863038453553
 40
3.16863038453553
 10
-22.94693704426572
 20
265.6718546251693
 30
0.0
 10
-22.76464762859863
 20
265.568354158753
 30
0.0
 10
-22.43186383501414
 20
265.3794058298281
 30
0.0
 10
-22.07415084775511
 20
264.9731559261476
 30
0.0
 10
-21.93718655141603
 20
264.5051284362116
 30
0.0
 10
-22.0741508477551
 20
264.0371009462756
 30
0.0
 10
-22.43186383501418
 20
263.6308510425951
 30
0.0
 10
-22.76464762859863
 20
263.4419027136701
 30
0.0
 10
-22.94693704426572
 20
263.3384022472537
 30
0.0
 11
-22.94693704426572
 21
265.6718546251693
 31
0.0
 11
-22.42250635162091
 21
265.3301282162619
 31
0.0
 11
-22.09283419542732
 21
264.9321798606308
 31
0.0
 11
-21.98039030198025
 21
264.5051284362116
 31
0.0
 11
-22.09283419542732
 21
264.0780770117925
 31
0.0
 11
-22.42250635162091
 21
263.6801286561613
 31
0.0
 11
-22.94693704426572
 21
263.3384022472537
 31
0.0
  0
SPLINE
  5
1D7
330
1F
100
AcDbEntity
  8
0
  6
Continuous
 62
     2
100
AcDbSpline
210
0.0
220
0.0
230
1.0
 70
     8
 71
     3
 72
    13
 73
     9
 74
     7
 42
0.000000001
 43
0.0000000001
 44
0.00000001
 40
0.0
 40
0.0
 40
0.0
 40
0.0
 40
0.6582140732375392
 40
1.384404504230042
 40
2.154561823308026
 40
2.937495405793538
 40
3.700099050707854
 40
4.412349174002188
 40
4.412349174002188
 40
4.412349174002188
 40
4.412349174002188
 10
-22.94693704426572
 20
263.3384022472537
 30
0.0
 10
-22.75819370759176
 20
263.2248733534732
 30
0.0
 10
-22.36121477536286
 20
262.9860909777344
 30
0.0
 10
-21.86175552353219
 20
262.4598386025463
 30
0.0
 10
-21.42605694433588
 20
261.8346881625673
 30
0.0
 10
-21.09519701361192
 20
261.1343725675443
 30
0.0
 10
-20.87238773727173
 20
260.4093364801647
 30
0.0
 10
-20.84084810607597
 20
259.9172896868195
 30
0.0
 10
-20.82561670070595
 20
259.6796658641206
 30
0.0
 11
-22.94693704426572
 21
263.3384022472537
 31
0.0
 11
-22.39789908496572
 21
262.9753552984038
 31
0.0
 11
-21.88627687248584
 21
262.4599959500107
 31
0.0
 11
-21.4469374441743
 21
261.8274430531561
 31
0.0
 11
-21.10981973717828
 21
261.1208054880334
 31
0.0
 11
-20.89789948487434
 21
260.3882386810567
 31
0.0
 11
-20.82561670070595
 21
259.6796658641206
 31
0.0
  0
SPLINE
  5
1D8
330
1F
100
AcDbEntity
  8
0
  6
Continuous
 62
     7
100
AcDbSpline
210
0.0
220
0.0
230
1.0
 70
     8
 71
     3
 72
    11
 73
     7
 74
     5
 42
0.000000001
 43
0.0000000001
 44
0.00000001
 40
0.0
 40
0.0
 40
0.0
 40
0.0
 40
1.128601646978616
 40
2.109277096623803
 40
2.959521446451828
 40
3.730023651574189
 40
3.730023651574189
 40
3.730023651574189
 40
3.730023651574189
 10
-20.15386525857878
 20
247.0426577947782
 30
0.0
 10
-19.823141473321
 20
247.2251035453669
 30
0.0
 10
-19.20504198795295
 20
247.5660818320954
 30
0.0
 10
-18.47677560342769
 20
248.2398907278243
 30
0.0
 10
-17.98122745756138
 20
248.9817943228881
 30
0.0
 10
-17.91528962348216
 20
249.5246318478775
 30
0.0
 10
-17.88394281277442
 20
249.7826965718762
 30
0.0
 11
-20.15386525857878
 21
247.0426577947782
 31
0.0
 11
-19.1900536230676
 21
247.6298620210355
 31
0.0
 11
-18.47387643581203
 21
248.2997982714614
 31
0.0
 11
-18.03285725017382
 21
249.02672160992
 31
0.0
 11
-17.88394281277442
 21
249.7826965718762
 31
0.0
  0
SPLINE
  5
1D9
330
1F
100
AcDbEntity
  8
0
  6
Continuous
 62
     7
100
AcDbSpline
210
0.0
220
0.0
230
1.0
 70
     8
 71
     3
 72
    11
 73
     7
 74
     5
 42
0.000000001
 43
0.0000000001
 44
0.00000001
 40
0.0
 40
0.0
 40
0.0
 40
0.0
 40
0.7705022051223395
 40
1.62074655495033
 40
2.601422004595556
 40
3.73002365157422
 40
3.73002365157422
 40
3.73002365157422
 40
3.73002365157422
 10
-65.91085474735564
 20
256.5002109931484
 30
0.0
 10
-65.87950793664794
 20
256.2421462691498
 30
0.0
 10
-65.81357010256882
 20
255.6993087441603
 30
0.0
 10
-65.31802195670262
 20
254.9574051490964
 30
0.0
 10
-64.58975557217727
 20
254.2835962533676
 30
0.0
 10
-63.97165608680917
 20
253.9426179666391
 30
0.0
 10
-63.6409323015514
 20
253.7601722160504
 30
0.0
 11
-65.91085474735564
 21
256.5002109931484
 31
0.0
 11
-65.76194030995636
 21
255.7442360311923
 31
0.0
 11
-65.32092112431826
 21
255.0173126927336
 31
0.0
 11
-64.60474393706264
 21
254.3473764423077
 31
0.0
 11
-63.6409323015514
 21
253.7601722160504
 31
0.0
  0
SPLINE
  5
1DA
330
1F
100
AcDbEntity
  8
0
  6
Continuous
 62
     7
100
AcDbSpline
210
0.0
220
0.0
230
1.0
 70
     8
 71
     3
 72
    19
 73
    15
 74
    13
 42
0.000000001
 43
0.0000000001
 44
0.00000001
 40
0.0
 40
0.0
 40
0.0
 40
0.0
 40
0.3159377443135657
 40
0.5951835285272782
 40
0.8729147618704058
 40
1.186240525599024
 40
1.497507391075744
 40
1.775869104635865
 40
2.068970898033862
 40
2.36794046304156
 40
2.920653961645092
 40
3.584333464403163
 40
4.23658731495112
 40
4.912513232281811
 40
4.912513232281811
 40
4.912513232281811
 40
4.912513232281811
 10
-64.81440813794893
 20
268.6245666461305
 30
0.0
 10
-64.81191532668278
 20
268.7299107980681
 30
0.0
 10
-64.80721919715263
 20
268.9283647815032
 30
0.0
 10
-64.77136134761254
 20
269.2175284029547
 30
0.0
 10
-64.71644996211826
 20
269.5025717308483
 30
0.0
 10
-64.63668772764193
 20
269.7929473802741
 30
0.0
 10
-64.53410300797253
 20
270.0762387720529
 30
0.0
 10
-64.41357181283223
 20
270.3449148717318
 30
0.0
 10
-64.2762993355807
 20
270.6008290303849
 30
0.0
 10
-64.07213843688211
 20
270.9235396184659
 30
0.0
 10
-63.75985669994552
 20
271.3225112141438
 30
0.0
 10
-63.3111386747463
 20
271.7571086815668
 30
0.0
 10
-62.77810539207059
 20
272.1570317587118
 30
0.0
 10
-62.38802015646012
 20
272.36747661394
 30
0.0
 10
-62.18950130236453
 20
272.474574408088
 30
0.0
 11
-64.81440813794893
 21
268.6245666461305
 31
0.0
 11
-64.80136381490841
 21
268.9402349933261
 31
0.0
 11
-64.76821680556975
 21
269.217506493318
 31
0.0
 11
-64.71539382385333
 21
269.4901681357372
 31
0.0
 11
-64.632542675884
 21
269.7923414670204
 31
0.0
 11
-64.52659624801369
 21
270.0850228918821
 31
0.0
 11
-64.4127150629331
 21
270.3390235209859
 31
0.0
 11
-64.27423075939534
 21
270.5973464957178
 31
0.0
 11
-64.11448014568236
 21
270.8500568882539
 31
0.0
 11
-63.77417207892022
 21
271.285582584454
 31
0.0
 11
-63.29919825459945
 21
271.7491236824008
 31
0.0
 11
-62.77608214401972
 21
272.1387191403749
 31
0.0
 11
-62.18950130236453
 21
272.474574408088
 31
0.0
  0
SPLINE
  5
1DB
330
1F
100
AcDbEntity
  8
0
  6
Continuous
 62
     7
100
AcDbSpline
210
0.0
220
0.0
230
1.0
 70
     8
 71
     3
 72
    15
 73
    11
 74
     9
 42
0.000000001
 43
0.0000000001
 44
0.00000001
 40
0.0
 40
0.0
 40
0.0
 40
0.0
 40
1.269436264802925
 40
2.656334155397942
 40
4.126808453233341
 40
5.640590611584312
 40
7.154372769935332
 40
8.62484706777074
 40
10.01174495836578
 40
11.28118122316884
 40
11.28118122316884
 40
11.28118122316884
 40
11.28118122316884
 10
-40.65996191298859
 20
246.5998140406912
 30
0.0
 10
-40.27236824040374
 20
246.4284644959016
 30
0.0
 10
-39.46131663692107
 20
246.0699103538808
 30
0.0
 10
-38.12219211039132
 20
245.7315252357664
 30
0.0
 10
-36.68019990422252
 20
245.512332733682
 30
0.0
 10
-35.17988435879293
 20
245.4407683278688
 30
0.0
 10
-33.67956881336334
 20
245.5123327336821
 30
0.0
 10
-32.23757660719452
 20
245.7315252357664
 30
0.0
 10
-30.8984520806647
 20
246.0699103538807
 30
0.0
 10
-30.08740047718199
 20
246.4284644959017
 30
0.0
 10
-29.69980680459707
 20
246.5998140406912
 30
0.0
 11
-40.65996191298859
 21
246.5998140406912
 31
0.0
 11
-39.48555346047416
 21
246.1179082229358
 31
0.0
 11
-38.14568095962238
 21
245.759819629308
 31
0.0
 11
-36.69183428270514
 21
245.5393100364888
 31
0.0
 11
-35.17988435879295
 21
245.4648528177892
 31
0.0
 11
-33.6679344348807
 21
245.5393100364888
 31
0.0
 11
-32.21408775796345
 21
245.759819629308
 31
0.0
 11
-30.87421525711165
 21
246.1179082229358
 31
0.0
 11
-29.69980680459707
 21
246.5998140406912
 31
0.0
  0
SPLINE
  5
1DC
330
1F
100
AcDbEntity
  8
0
  6
Continuous
 62
     7
100
AcDbSpline
210
0.0
220
0.0
230
1.0
 70
     8
 71
     3
 72
    15
 73
    11
 74
     9
 42
0.000000001
 43
0.0000000001
 44
0.00000001
 40
0.0
 40
0.0
 40
0.0
 40
0.0
 40
1.031928834604713
 40
2.159342603700611
 40
3.3546959051543
 40
4.585254303184163
 40
5.815812701214019
 40
7.011166002667658
 40
8.138579771763556
 40
9.17050860636833
 40
9.17050860636833
 40
9.17050860636833
 40
9.17050860636833
 10
-30.7251116373177
 20
246.9356897617548
 30
0.0
 10
-31.04018778406126
 20
246.7963991640561
 30
0.0
 10
-31.69949424987377
 20
246.5049293479748
 30
0.0
 10
-32.78807289723878
 20
246.2298549927597
 30
0.0
 10
-33.96027301300202
 20
246.0516727007633
 30
0.0
 10
-35.17988435879295
 20
245.9934977593966
 30
0.0
 10
-36.39949570458383
 20
246.0516727007634
 30
0.0
 10
-37.57169582034708
 20
246.2298549927597
 30
0.0
 10
-38.66027446771209
 20
246.5049293479748
 30
0.0
 10
-39.31958093352461
 20
246.7963991640561
 30
0.0
 10
-39.6346570802682
 20
246.9356897617548
 30
0.0
 11
-30.7251116373177
 21
246.9356897617548
 31
0.0
 11
-31.67979205678112
 21
246.5439469679665
 31
0.0
 11
-32.76897873489287
 21
246.2528555950819
 31
0.0
 11
-33.95081538838688
 21
246.073602635758
 31
0.0
 11
-35.17988435879295
 21
246.0130761224925
 31
0.0
 11
-36.40895332919901
 21
246.073602635758
 31
0.0
 11
-37.59078998269297
 21
246.2528555950819
 31
0.0
 11
-38.67997666080473
 21
246.5439469679664
 31
0.0
 11
-39.6346570802682
 21
246.9356897617548
 31
0.0
  0
SPLINE
  5
1DD
330
1F
100
AcDbEntity
  8
0
  6
Continuous
 62
     7
100
AcDbSpline
210
0.0
220
0.0
230
1.0
 70
     8
 71
     3
 72
    15
 73
    11
 74
     9
 42
0.000000001
 43
0.0000000001
 44
0.00000001
 40
0.0
 40
0.0
 40
0.0
 40
0.0
 40
1.269436264802958
 40
2.656334155397982
 40
4.126808453233364
 40
5.640590611584334
 40
7.154372769935354
 40
8.62484706777074
 40
10.01174495836579
 40
11.28118122316888
 40
11.28118122316888
 40
11.28118122316888
 40
11.28118122316888
 10
-40.65996191298859
 20
242.269687021769
 30
0.0
 10
-40.27236824040374
 20
242.0983374769794
 30
0.0
 10
-39.46131663692109
 20
241.7397833349585
 30
0.0
 10
-38.12219211039132
 20
241.401398216844
 30
0.0
 10
-36.6801999042225
 20
241.1822057147598
 30
0.0
 10
-35.17988435879293
 20
241.1106413089466
 30
0.0
 10
-33.67956881336335
 20
241.1822057147598
 30
0.0
 10
-32.23757660719451
 20
241.4013982168441
 30
0.0
 10
-30.89845208066469
 20
241.7397833349584
 30
0.0
 10
-30.08740047718198
 20
242.0983374769794
 30
0.0
 10
-29.69980680459707
 20
242.269687021769
 30
0.0
 11
-40.65996191298859
 21
242.269687021769
 31
0.0
 11
-39.48555346047416
 21
241.7877812040135
 31
0.0
 11
-38.14568095962238
 21
241.4296926103856
 31
0.0
 11
-36.69183428270514
 21
241.2091830175666
 31
0.0
 11
-35.17988435879295
 21
241.134725798867
 31
0.0
 11
-33.6679344348807
 21
241.2091830175667
 31
0.0
 11
-32.21408775796345
 21
241.4296926103856
 31
0.0
 11
-30.87421525711165
 21
241.7877812040135
 31
0.0
 11
-29.69980680459707
 21
242.269687021769
 31
0.0
  0
SPLINE
  5
1DE
330
1F
100
AcDbEntity
  8
0
  6
Continuous
 62
     7
100
AcDbSpline
210
0.0
220
0.0
230
1.0
 70
     8
 71
     3
 72
    11
 73
     7
 74
     5
 42
0.000000001
 43
0.0000000001
 44
0.00000001
 40
0.0
 40
0.0
 40
0.0
 40
0.0
 40
0.0023007668519947
 40
0.0045083643308918
 40
0.0069814484446684
 40
0.0095528415105732
 40
0.0095528415105732
 40
0.0095528415105732
 40
0.0095528415105732
 10
-140.1980963441275
 20
113.6446674284021
 30
0.0
 10
-140.1973273790314
 20
113.6447171432687
 30
0.0
 10
-140.1958205898257
 20
113.6448145741893
 30
0.0
 10
-140.1936108894477
 20
113.6456208572442
 30
0.0
 10
-140.1915156910516
 20
113.6468586982452
 30
0.0
 10
-140.1902794999401
 20
113.6480048218998
 30
0.0
 10
-140.1896493634929
 20
113.6485890575775
 30
0.0
 11
-140.1980963441275
 21
113.6446674284021
 31
0.0
 11
-140.1958102428779
 21
113.6449268058459
 31
0.0
 11
-140.1937236509991
 21
113.6456476597287
 31
0.0
 11
-140.191597255178
 21
113.6469104325624
 31
0.0
 11
-140.1896493634929
 21
113.6485890575775
 31
0.0
  0
SPLINE
  5
1DF
330
1F
100
AcDbEntity
  8
0
  6
Continuous
 62
     7
100
AcDbSpline
210
0.0
220
0.0
230
1.0
 70
     8
 71
     3
 72
    11
 73
     7
 74
     5
 42
0.000000001
 43
0.0000000001
 44
0.00000001
 40
0.0
 40
0.0
 40
0.0
 40
0.0
 40
0.0025723573298284
 40
0.0050463584750077
 40
0.0073516479300455
 40
0.0095528777583364
 40
0.0095528777583364
 40
0.0095528777583364
 40
0.0095528777583364
 10
-140.1896493634929
 20
109.6407457992267
 30
0.0
 10
-140.1902797707328
 20
109.6413302258278
 30
0.0
 10
-140.1915164905313
 20
109.6424767216535
 30
0.0
 10
-140.1936402631353
 20
109.6437316177185
 30
0.0
 10
-140.1958550586057
 20
109.644528357138
 30
0.0
 10
-140.1973608383155
 20
109.6446217953292
 30
0.0
 10
-140.1980963441275
 20
109.6446674284021
 30
0.0
 11
-140.1896493634929
 21
109.6407457992267
 31
0.0
 11
-140.1915980370498
 21
109.6424249939021
 31
0.0
 11
-140.1937253653251
 21
109.6436879924468
 31
0.0
 11
-140.1959079443267
 21
109.6444300967942
 31
0.0
 11
-140.1980963441275
 21
109.6446674284021
 31
0.0
  0
ARC
  5
1E0
102
{ACAD_REACTORS
330
21E
102
}
330
1F
100
AcDbEntity
  8
1
  6
Continuous
 62
     7
100
AcDbCircle
 10
-15.65703264459069
 20
10.07749983983263
 30
0.0
 40
0.3333333333332504
100
AcDbArc
 50
180.0
 51
299.9816393688506
  0
ARC
  5
1E1
102
{ACAD_REACTORS
330
21E
102
}
330
1F
100
AcDbEntity
  8
1
  6
Continuous
 62
     7
100
AcDbCircle
 10
-15.65703264459069
 20
14.92250016016737
 30
0.0
 40
0.3333333333333749
100
AcDbArc
 50
60.01836063114941
 51
180.0
  0
ARC
  5
1E2
330
1F
100
AcDbEntity
  8
1
  6
Continuous
 62
     7
100
AcDbCircle
 10
-9.99055111169741
 20
12.5
 30
0.0
 40
0.1666666666666586
100
AcDbArc
 50
299.9816393688334
 51
60.01836063114615
  0
ARC
  5
1E3
330
1F
100
AcDbEntity
  8
1
  6
Continuous
 62
     7
100
AcDbCircle
 10
-26.65684751081722
 20
12.5
 30
0.0
 40
0.1666666666666105
100
AcDbArc
 50
119.9816393688866
 51
240.0183606311338
  0
ARC
  5
1E4
102
{ACAD_REACTORS
330
220
102
}
330
1F
100
AcDbEntity
  8
1
  6
Continuous
 62
     7
100
AcDbCircle
 10
-20.65703264459069
 20
10.2700211480327
 30
0.0
 40
0.6666666666666323
100
AcDbArc
 50
180.0000000000104
 51
240.0183606311558
  0
ARC
  5
1E5
102
{ACAD_REACTORS
330
221
102
}
330
1F
100
AcDbEntity
  8
1
  6
Continuous
 62
     7
100
AcDbCircle
 10
-18.32369931125732
 20
12.83333333333326
 30
0.0
 40
0.1666666666666997
100
AcDbArc
 50
209.999999999964
 51
330.0000000000195
  0
MTEXT
  5
1E7
330
1F
100
AcDbEntity
  8
1
 62
     7
100
AcDbMText
 10
-40.32369931125729
 20
10.06063942075605
 30
0.0
 40
4.5
 41
0.0
 71
     5
 72
     1
  1
1:1
  7
CONVERTER_11
 73
     1
 44
1.32052821128451
  0
MTEXT
  5
1E8
330
1F
100
AcDbEntity
  8
1
 62
     7
100
AcDbMText
 10
-40.32369931125729
 20
16.26063942075598
 30
0.0
 40
3.0
 41
0.0
 71
     5
 72
     1
  1
Scale
  7
CONVERTER_11
 73
     1
 44
1.32052821128451
  0
MTEXT
  5
1E9
330
1F
100
AcDbEntity
  8
1
 62
     7
100
AcDbMText
 10
-152.7236993112573
 20
12.5
 30
0.0
 40
4.5
 41
0.0
 71
     4
 72
     1
  1
CQ 08 CA\Pinsulating cover for male insert
  7
CONVERTER_11
 73
     1
 44
0.90036014405762
  0
MTEXT
  5
1EA
330
1F
100
AcDbEntity
  8
1
 62
     7
100
AcDbMText
 10
-177.4
 20
7.49999999999987
 30
0.0
 40
3.0
 41
0.0
 71
     4
 72
     1
  1
T.Tedeschi
  7
CONVERTER_11
 73
     1
 44
1.32052821128451
  0
MTEXT
  5
1EB
330
1F
100
AcDbEntity
  8
1
 62
     7
100
AcDbMText
 10
-188.0
 20
7.49999999999987
 30
0.0
 40
3.0
 41
0.0
 71
     4
 72
     1
  1
Sign.
  7
CONVERTER_11
 73
     1
 44
1.32052821128451
  0
MTEXT
  5
1EC
330
1F
100
AcDbEntity
  8
1
 62
     7
100
AcDbMText
 10
-177.4
 20
12.49999999999987
 30
0.0
 40
3.0
 41
0.0
 71
     4
 72
     1
  1
11/02/10
  7
CONVERTER_11
 73
     1
 44
1.32052821128451
  0
MTEXT
  5
1ED
330
1F
100
AcDbEntity
  8
1
 62
     7
100
AcDbMText
 10
-188.0
 20
12.49999999999987
 30
0.0
 40
3.0
 41
0.0
 71
     4
 72
     1
  1
Date
  7
CONVERTER_11
 73
     1
 44
1.32052821128451
  0
MTEXT
  5
1EE
330
1F
100
AcDbEntity
  8
1
 62
     7
100
AcDbMText
 10
-194.0000000000001
 20
151.4999999999998
 30
0.0
 40
4.0
 41
0.0
 71
     5
 72
     1
  1
Diritti riservati      All rights reserved
  7
CONVERTER_11
 11
0.0
 21
1.0
 31
0.0
 73
     1
 44
1.32052821128451
  0
MTEXT
  5
1F0
330
1F
100
AcDbEntity
  8
1
 62
     7
100
AcDbMText
 10
-174.0
 20
17.49999999999994
 30
0.0
 40
2.5
 41
0.0
 71
     5
 72
     1
  1
dimensions in mm
  7
CONVERTER_12
 73
     1
 44
0.60024009603842
  0
DIMENSION
  5
1FC
330
1F
100
AcDbEntity
  8
1
100
AcDbDimension
  2
*D1
 10
-69.13365518272815
 20
199.551846700831
 30
0.0
 11
-51.83365518272817
 21
203.201846700831
 31
0.0
 70
    32
  1
<>
 71
     5
 42
-1.0
 53
0.00013888888889
  3
ME10_DIM_10
100
AcDbAlignedDimension
 13
-34.53365518272818
 23
180.0446677208612
 33
0.0
 14
-69.13365518272815
 24
180.0446677208612
 34
0.0
100
AcDbRotatedDimension
  0
DIMENSION
  5
207
330
1F
100
AcDbEntity
  8
1
100
AcDbDimension
  2
*D2
 10
-160.072069508458
 20
186.7446677208613
 30
0.0
 11
-163.572069508458
 21
178.2446677208613
 31
0.0
 70
    32
  1
<>
 71
     5
 42
-1.0
 53
90.0
  3
ME10_DIM_11
100
AcDbAlignedDimension
 13
-149.3308249258621
 23
169.7446677208613
 33
0.0
 14
-147.1308249258621
 24
186.7446677208613
 34
0.0
 50
90.0
100
AcDbRotatedDimension
  0
DIMENSION
  5
212
330
1F
100
AcDbEntity
  8
1
100
AcDbDimension
  2
*D3
 10
-160.112447751958
 20
126.1446674284021
 30
0.0
 11
-163.612447751958
 21
111.6446674284021
 31
0.0
 70
    32
  1
<>
 71
     5
 42
-1.0
 53
90.0
  3
ME10_DIM_12
100
AcDbAlignedDimension
 13
-141.5808249258621
 23
97.1446674284021
 33
0.0
 14
-141.5808249258621
 24
126.1446674284021
 34
0.0
 50
90.0
100
AcDbRotatedDimension
  0
DIMENSION
  5
21D
330
1F
100
AcDbEntity
  8
1
100
AcDbDimension
  2
*D4
 10
-149.3308249258621
 20
79.1936423560199
 30
0.0
 11
-125.3308249258621
 21
82.6936423560199
 31
0.0
 70
    32
  1
<>
 71
     5
 42
-1.0
 53
0.00013888888889
  3
ME10_DIM_13
100
AcDbAlignedDimension
 13
-101.3308249258621
 23
104.8946674284021
 33
0.0
 14
-149.3308249258621
 24
104.8946674284021
 34
0.0
100
AcDbRotatedDimension
  0
HATCH
  5
21E
330
1F
100
AcDbEntity
  8
1
  6
Continuous
 62
     7
100
AcDbHatch
 10
0.0
 20
0.0
 30
0.0
210
0.0
220
0.0
230
1.0
  2
SOLID
 70
     1
 71
     1
 91
        1
 92
        1
 93
       14
 72
     1
 10
-14.49027346242053
 20
13.86454086225376
 11
-15.32369931125732
 21
14.34536346735194
 72
     1
 10
-15.32369931125732
 20
14.34536346735194
 11
-15.32369931125732
 21
12.83333333333326
 72
     1
 10
-15.32369931125732
 20
12.83333333333326
 11
-14.32369931125732
 21
12.83333333333326
 72
     2
 10
-14.32369931125732
 20
12.5
 40
0.3333333333333695
 50
270.0
 51
450.0
 73
     0
 72
     1
 10
-14.32369931125732
 20
12.16666666666663
 11
-15.32369931125732
 21
12.16666666666663
 72
     1
 10
-15.32369931125732
 20
12.16666666666663
 11
-15.32369931125732
 21
10.65463653264794
 72
     1
 10
-15.32369931125732
 20
10.65463653264794
 11
-14.49027346242053
 21
11.13545913774624
 72
     2
 10
-14.32369931125732
 20
10.84673060906323
 40
0.3333333333333198
 50
240.0183606311603
 51
420.0183606311658
 73
     0
 72
     1
 10
-14.15712516009421
 20
10.55800208038033
 11
-15.49045849342747
 21
9.78877131114973
 72
     2
 10
-15.65703264459069
 20
10.07749983983263
 40
0.3333333333332504
 50
60.01836063114943
 51
180.0
 73
     0
 72
     1
 10
-15.99036597792394
 20
10.07749983983263
 11
-15.99036597792394
 21
14.92250016016737
 72
     2
 10
-15.65703264459069
 20
14.92250016016737
 40
0.3333333333333749
 50
180.0
 51
299.9816393688506
 73
     0
 72
     1
 10
-15.49045849342747
 20
15.21122868885027
 11
-14.15712516009421
 21
14.44199791961944
 72
     2
 10
-14.32369931125732
 20
14.15326939093666
 40
0.333333333333372
 50
299.9816393688444
 51
479.9816393688491
 73
     0
 97
       14
330
14F
330
1E1
330
166
330
1E0
330
148
330
198
330
149
330
14A
330
14B
330
199
330
14C
330
14D
330
14E
330
19A
 75
     0
 76
     1
 98
        1
 10
0.0
 20
0.0
  0
HATCH
  5
21F
330
1F
100
AcDbEntity
  8
1
  6
Continuous
 62
     7
100
AcDbHatch
 10
0.0
 20
0.0
 30
0.0
210
0.0
220
0.0
230
1.0
  2
SOLID
 70
     1
 71
     1
 91
        1
 92
        1
 93
        5
 72
     1
 10
-21.99036597792406
 20
14.15326939093666
 11
-21.99036597792406
 21
11.0392519172633
 72
     1
 10
-21.99036597792406
 20
11.0392519172633
 11
-21.99036597792406
 21
10.84673060906323
 72
     2
 10
-22.32369931125732
 20
10.84673060906323
 40
0.3333333333333677
 50
0.0
 51
180.0
 73
     0
 72
     1
 10
-22.65703264459069
 20
10.84673060906323
 11
-22.65703264459069
 21
14.15326939093666
 72
     2
 10
-22.32369931125732
 20
14.15326939093666
 40
0.3333333333332611
 50
180.0
 51
360.0
 73
     0
 97
        5
330
152
330
151
330
19B
330
150
330
19C
 75
     0
 76
     1
 98
        1
 10
0.0
 20
0.0
  0
HATCH
  5
220
330
1F
100
AcDbEntity
  8
1
  6
Continuous
 62
     7
100
AcDbHatch
 10
0.0
 20
0.0
 30
0.0
210
0.0
220
0.0
230
1.0
  2
SOLID
 70
     1
 71
     1
 91
        1
 92
        1
 93
        7
 72
     1
 10
-20.65703264459069
 20
14.92250016016737
 11
-20.65703264459069
 21
10.2700211480327
 72
     1
 10
-20.65703264459069
 20
10.2700211480327
 11
-18.49045849342747
 21
9.020074522361597
 72
     2
 10
-18.65703264459069
 20
8.731345993678701
 40
0.3333333333333673
 50
299.9816393688506
 51
479.9816393688495
 73
     0
 72
     1
 10
-18.8236067957539
 20
8.442617464995806
 11
-20.99018094691704
 21
9.692564090666906
 72
     2
 10
-20.65703264459069
 20
10.2700211480327
 40
0.6666666666666323
 50
119.9816393688442
 51
179.9999999999896
 73
     0
 72
     1
 10
-21.32369931125732
 20
10.27002114803258
 11
-21.32369931125732
 21
14.92250016016737
 72
     2
 10
-20.99036597792406
 20
14.92250016016737
 40
0.3333333333333712
 50
180.0
 51
360.0
 73
     0
 97
        7
330
155
330
154
330
19D
330
153
330
1E4
330
156
330
19E
 75
     0
 76
     1
 98
        1
 10
0.0
 20
0.0
  0
HATCH
  5
221
330
1F
100
AcDbEntity
  8
1
  6
Continuous
 62
     7
100
AcDbHatch
 10
0.0
 20
0.0
 30
0.0
210
0.0
220
0.0
230
1.0
  2
SOLID
 70
     1
 71
     1
 91
        1
 92
        1
 93
       16
 72
     2
 10
-19.72539976544874
 20
15.73121731203457
 40
0.2649662124753284
 50
30.00000000001384
 51
180.0
 73
     1
 72
     1
 10
-19.99036597792406
 20
15.73121731203457
 11
-19.99036597792406
 21
12.5
 72
     1
 10
-19.99036597792406
 20
12.5
 11
-19.99036597792406
 21
10.84758507263291
 72
     2
 10
-19.65703264459069
 20
10.84758507263291
 40
0.3333333333333712
 50
180.0
 51
360.0
 73
     1
 72
     1
 10
-19.32369931125732
 20
10.84758507263291
 11
-19.32369931125732
 21
12.5
 72
     1
 10
-19.32369931125732
 20
12.5
 11
-19.32369931125732
 21
14.23205080756884
 72
     1
 10
-19.32369931125732
 20
14.23205080756884
 11
-18.46803687855481
 21
12.75
 72
     2
 10
-18.32369931125732
 20
12.83333333333326
 40
0.1666666666666997
 50
209.999999999964
 51
330.0000000000195
 73
     1
 72
     1
 10
-18.17936174395993
 20
12.75
 11
-17.32369931125732
 21
14.23205080756884
 72
     1
 10
-17.32369931125732
 20
14.23205080756884
 11
-17.32369931125732
 21
12.5
 72
     1
 10
-17.32369931125732
 20
12.5
 11
-17.32369931125732
 21
9.308269070601796
 72
     2
 10
-16.99036597792394
 20
9.308269070601796
 40
0.3333333333333819
 50
180.0
 51
360.0
 73
     1
 72
     1
 10
-16.65703264459069
 20
9.308269070601796
 11
-16.65703264459069
 21
15.73121731203457
 72
     2
 10
-16.921998857066
 20
15.73121731203457
 40
0.2649662124753114
 50
0.0
 51
149.9999999999743
 73
     1
 72
     1
 10
-17.15146632821404
 20
15.86370041827229
 11
-18.32369931125732
 21
13.83333333333326
 72
     1
 10
-18.32369931125732
 20
13.83333333333326
 11
-19.49593229430059
 21
15.86370041827229
 97
       16
330
157
330
19F
330
158
330
1A0
330
159
330
165
330
164
330
1E5
330
163
330
162
330
15A
330
1A1
330
15B
330
15D
330
1A2
330
15C
 75
     0
 76
     1
 98
        1
 10
0.0
 20
0.0
  0
ENDSEC
  0
SECTION
  2
OBJECTS
  0
DICTIONARY
  5
C
330
0
100
AcDbDictionary
281
     1
  3
ACAD_GROUP
350
D
  3
ACAD_LAYOUT
350
1A
  3
ACAD_MATERIAL
350
3B
  3
ACAD_MLEADERSTYLE
350
224
  3
ACAD_MLINESTYLE
350
17
  3
ACAD_PLOTSETTINGS
350
19
  3
ACAD_PLOTSTYLENAME
350
E
  3
ACAD_VISUALSTYLE
350
2A
  3
AcDbVariableDictionary
350
222
  0
DICTIONARY
  5
D
102
{ACAD_REACTORS
330
C
102
}
330
C
100
AcDbDictionary
281
     1
  0
DICTIONARY
  5
1A
102
{ACAD_REACTORS
330
C
102
}
330
C
100
AcDbDictionary
281
     1
  3
Layout1
350
1E
  3
Layout2
350
26
  3
Model
350
22
  0
DICTIONARY
  5
3B
102
{ACAD_REACTORS
330
C
102
}
330
C
100
AcDbDictionary
281
     1
  3
ByBlock
350
3D
  3
ByLayer
350
3C
  3
Global
350
3E
  0
DICTIONARY
  5
224
102
{ACAD_REACTORS
330
C
102
}
330
C
100
AcDbDictionary
281
     1
  0
DICTIONARY
  5
17
102
{ACAD_REACTORS
330
C
102
}
330
C
100
AcDbDictionary
281
     1
  3
Standard
350
18
  0
DICTIONARY
  5
19
102
{ACAD_REACTORS
330
C
102
}
330
C
100
AcDbDictionary
281
     1
  0
ACDBDICTIONARYWDFLT
  5
E
102
{ACAD_REACTORS
330
C
102
}
330
C
100
AcDbDictionary
281
     1
  3
Normal
350
F
100
AcDbDictionaryWithDefault
340
F
  0
DICTIONARY
  5
2A
102
{ACAD_REACTORS
330
C
102
}
330
C
100
AcDbDictionary
281
     1
  3
2dWireframe
350
2F
  3
3D Hidden
350
31
  3
3dWireframe
350
30
  3
Basic
350
32
  3
Brighten
350
36
  3
ColorChange
350
3A
  3
Conceptual
350
34
  3
Dim
350
35
  3
Facepattern
350
39
  3
Flat
350
2B
  3
FlatWithEdges
350
2C
  3
Gouraud
350
2D
  3
GouraudWithEdges
350
2E
  3
Linepattern
350
38
  3
Realistic
350
33
  3
Thicken
350
37
  0
DICTIONARY
  5
222
102
{ACAD_REACTORS
330
C
102
}
330
C
100
AcDbDictionary
281
     1
  3
DIMASSOC
350
225
  3
HIDETEXT
350
226
  0
LAYOUT
  5
1E
102
{ACAD_REACTORS
330
1A
102
}
330
1A
100
AcDbPlotSettings
  1

  2
none_device
  4

  6

 40
0.0
 41
0.0
 42
0.0
 43
0.0
 44
0.0
 45
0.0
 46
0.0
 47
0.0
 48
0.0
 49
0.0
140
0.0
141
0.0
142
1.0
143
1.0
 70
   688
 72
     0
 73
     0
 74
     5
  7

 75
    16
147
1.0
148
0.0
149
0.0
100
AcDbLayout
  1
Layout1
 70
     1
 71
     1
 10
0.0
 20
0.0
 11
12.0
 21
9.0
 12
0.0
 22
0.0
 32
0.0
 14
1.00000000000000E+20
 24
1.00000000000000E+20
 34
1.00000000000000E+20
 15
-1.00000000000000E+20
 25
-1.00000000000000E+20
 35
-1.00000000000000E+20
146
0.0
 13
0.0
 23
0.0
 33
0.0
 16
1.0
 26
0.0
 36
0.0
 17
0.0
 27
1.0
 37
0.0
 76
     0
330
1B
  0
LAYOUT
  5
26
102
{ACAD_REACTORS
330
1A
102
}
330
1A
100
AcDbPlotSettings
  1

  2
none_device
  4

  6

 40
0.0
 41
0.0
 42
0.0
 43
0.0
 44
0.0
 45
0.0
 46
0.0
 47
0.0
 48
0.0
 49
0.0
140
0.0
141
0.0
142
1.0
143
1.0
 70
   688
 72
     0
 73
     0
 74
     5
  7

 75
    16
147
1.0
148
0.0
149
0.0
100
AcDbLayout
  1
Layout2
 70
     1
 71
     2
 10
0.0
 20
0.0
 11
0.0
 21
0.0
 12
0.0
 22
0.0
 32
0.0
 14
0.0
 24
0.0
 34
0.0
 15
0.0
 25
0.0
 35
0.0
146
0.0
 13
0.0
 23
0.0
 33
0.0
 16
1.0
 26
0.0
 36
0.0
 17
0.0
 27
1.0
 37
0.0
 76
     0
330
23
  0
LAYOUT
  5
22
102
{ACAD_REACTORS
330
1A
102
}
330
1A
100
AcDbPlotSettings
  1

  2
none_device
  4

  6

 40
0.0
 41
0.0
 42
0.0
 43
0.0
 44
0.0
 45
0.0
 46
0.0
 47
0.0
 48
0.0
 49
0.0
140
0.0
141
0.0
142
1.0
143
1.0
 70
  1712
 72
     0
 73
     0
 74
     0
  7

 75
     0
147
1.0
148
0.0
149
0.0
100
AcDbLayout
  1
Model
 70
     1
 71
     0
 10
0.0
 20
0.0
 11
12.0
 21
9.0
 12
0.0
 22
0.0
 32
0.0
 14
-210.0000000000001
 24
0.0
 34
0.0
 15
0.0
 25
297.0000000000001
 35
0.0
146
0.0
 13
0.0
 23
0.0
 33
0.0
 16
1.0
 26
0.0
 36
0.0
 17
0.0
 27
1.0
 37
0.0
 76
     0
330
1F
331
29
  0
MATERIAL
  5
3D
102
{ACAD_REACTORS
330
3B
102
}
102
{ACAD_XDICTIONARY
360
249
102
}
330
3B
100
AcDbMaterial
  1
ByBlock
  0
MATERIAL
  5
3C
102
{ACAD_REACTORS
330
3B
102
}
102
{ACAD_XDICTIONARY
360
247
102
}
330
3B
100
AcDbMaterial
  1
ByLayer
  0
MATERIAL
  5
3E
102
{ACAD_REACTORS
330
3B
102
}
102
{ACAD_XDICTIONARY
360
24B
102
}
330
3B
100
AcDbMaterial
  1
Global
  0
MLINESTYLE
  5
18
102
{ACAD_REACTORS
330
17
102
}
330
17
100
AcDbMlineStyle
  2
Standard
 70
     0
  3

 62
   256
 51
90.0
 52
90.0
 71
     2
 49
0.5
 62
   256
  6
BYLAYER
 49
-0.5
 62
   256
  6
BYLAYER
  0
ACDBPLACEHOLDER
  5
F
102
{ACAD_REACTORS
330
E
102
}
330
E
  0
VISUALSTYLE
  5
2F
102
{ACAD_REACTORS
330
2A
102
}
102
{ACAD_XDICTIONARY
360
22F
102
}
330
2A
100
AcDbVisualStyle
  2
2dWireframe
 70
     4
 71
     0
 72
     2
 73
     0
 90
        0
 40
-0.6
 41
-30.0
 62
     5
 63
     7
 74
     1
 91
        4
 64
     7
 65
   257
 75
     1
175
     1
 42
1.0
 92
        0
 66
   257
 43
1.0
 76
     1
 77
     6
 78
     2
 67
     7
 79
     5
170
     0
171
     0
290
     0
174
     0
 93
        1
 44
0.0
173
     0
291
     0
 45
0.0
1001
ACAD
1000
AcDbSavedByObjectVersion
1070
     0
  0
VISUALSTYLE
  5
31
102
{ACAD_REACTORS
330
2A
102
}
102
{ACAD_XDICTIONARY
360
233
102
}
330
2A
100
AcDbVisualStyle
  2
3D Hidden
 70
     6
 71
     1
 72
     2
 73
     2
 90
        0
 40
-0.6
 41
-30.0
 62
     5
 63
     7
 74
     2
 91
        2
 64
     7
 65
   257
 75
     2
175
     1
 42
40.0
 92
        0
 66
   257
 43
1.0
 76
     1
 77
     6
 78
     2
 67
     7
 79
     3
170
     0
171
     0
290
     0
174
     0
 93
        1
 44
0.0
173
     0
291
     0
 45
0.0
1001
ACAD
1000
AcDbSavedByObjectVersion
1070
     0
  0
VISUALSTYLE
  5
30
102
{ACAD_REACTORS
330
2A
102
}
102
{ACAD_XDICTIONARY
360
231
102
}
330
2A
100
AcDbVisualStyle
  2
3dWireframe
 70
     5
 71
     0
 72
     2
 73
     0
 90
        0
 40
-0.6
 41
-30.0
 62
     5
 63
     7
 74
     1
 91
        4
 64
     7
 65
   257
 75
     1
175
     1
 42
1.0
 92
        0
 66
   257
 43
1.0
 76
     1
 77
     6
 78
     2
 67
     7
 79
     5
170
     0
171
     0
290
     0
174
     0
 93
        1
 44
0.0
173
     0
291
     0
 45
0.0
1001
ACAD
1000
AcDbSavedByObjectVersion
1070
     0
  0
VISUALSTYLE
  5
32
102
{ACAD_REACTORS
330
2A
102
}
102
{ACAD_XDICTIONARY
360
235
102
}
330
2A
100
AcDbVisualStyle
  2
Basic
 70
     7
 71
     1
 72
     0
 73
     1
 90
        0
 40
-0.6
 41
-30.0
 62
     5
 63
     7
 74
     0
 91
        4
 64
     7
 65
   257
 75
     1
175
     1
 42
1.0
 92
        8
 66
     7
 43
1.0
 76
     1
 77
     6
 78
     2
 67
     7
 79
     5
170
     0
171
     0
290
     0
174
     0
 93
        1
 44
0.0
173
     0
291
     1
 45
0.0
1001
ACAD
1000
AcDbSavedByObjectVersion
1070
     0
  0
VISUALSTYLE
  5
36
102
{ACAD_REACTORS
330
2A
102
}
102
{ACAD_XDICTIONARY
360
23D
102
}
330
2A
100
AcDbVisualStyle
  2
Brighten
 70
    12
 71
     2
 72
     2
 73
     0
 90
        0
 40
-0.6
 41
-30.0
 62
     5
 63
     7
 74
     1
 91
        4
 64
     7
 65
   257
 75
     1
175
     1
 42
1.0
 92
        8
 66
     7
 43
1.0
 76
     1
 77
     6
 78
     2
 67
     7
 79
     5
170
     0
171
     0
290
     0
174
     0
 93
        1
 44
50.0
173
     0
291
     1
 45
0.0
1001
ACAD
1000
AcDbSavedByObjectVersion
1070
     0
  0
VISUALSTYLE
  5
3A
102
{ACAD_REACTORS
330
2A
102
}
102
{ACAD_XDICTIONARY
360
245
102
}
330
2A
100
AcDbVisualStyle
  2
ColorChange
 70
    16
 71
     2
 72
     2
 73
     3
 90
        0
 40
-0.6
 41
-30.0
 62
     5
 63
     8
 74
     1
 91
        4
 64
     7
 65
   257
 75
     1
175
     1
 42
1.0
 92
        8
 66
     8
 43
1.0
 76
     1
 77
     6
 78
     2
 67
     7
 79
     5
170
     0
171
     0
290
     0
174
     0
 93
        1
 44
0.0
173
     0
291
     1
 45
0.0
1001
ACAD
1000
AcDbSavedByObjectVersion
1070
     0
  0
VISUALSTYLE
  5
34
102
{ACAD_REACTORS
330
2A
102
}
102
{ACAD_XDICTIONARY
360
239
102
}
330
2A
100
AcDbVisualStyle
  2
Conceptual
 70
     9
 71
     3
 72
     2
 73
     0
 90
        0
 40
-0.6
 41
-30.0
 62
     5
 63
     7
 74
     2
 91
        2
 64
     7
 65
   257
 75
     1
175
     1
 42
40.0
 92
        8
 66
     7
 43
1.0
 76
     1
 77
     6
 78
     2
 67
     7
 79
     3
170
     0
171
     0
290
     0
174
     0
 93
        1
 44
0.0
173
     0
291
     0
 45
0.0
1001
ACAD
1000
AcDbSavedByObjectVersion
1070
     0
  0
VISUALSTYLE
  5
35
102
{ACAD_REACTORS
330
2A
102
}
102
{ACAD_XDICTIONARY
360
23B
102
}
330
2A
100
AcDbVisualStyle
  2
Dim
 70
    11
 71
     2
 72
     2
 73
     0
 90
        0
 40
-0.6
 41
-30.0
 62
     5
 63
     7
 74
     1
 91
        4
 64
     7
 65
   257
 75
     1
175
     1
 42
1.0
 92
        8
 66
     7
 43
1.0
 76
     1
 77
     6
 78
     2
 67
     7
 79
     5
170
     0
171
     0
290
     0
174
     0
 93
        1
 44
-50.0
173
     0
291
     1
 45
0.0
1001
ACAD
1000
AcDbSavedByObjectVersion
1070
     0
  0
VISUALSTYLE
  5
39
102
{ACAD_REACTORS
330
2A
102
}
102
{ACAD_XDICTIONARY
360
243
102
}
330
2A
100
AcDbVisualStyle
  2
Facepattern
 70
    15
 71
     2
 72
     2
 73
     0
 90
        0
 40
-0.6
 41
-30.0
 62
     5
 63
     7
 74
     1
 91
        4
 64
     7
 65
   257
 75
     1
175
     1
 42
1.0
 92
        8
 66
     7
 43
1.0
 76
     1
 77
     6
 78
     2
 67
     7
 79
     5
170
     0
171
     0
290
     0
174
     0
 93
        1
 44
0.0
173
     0
291
     1
 45
0.0
1001
ACAD
1000
AcDbSavedByObjectVersion
1070
     0
  0
VISUALSTYLE
  5
2B
102
{ACAD_REACTORS
330
2A
102
}
102
{ACAD_XDICTIONARY
360
227
102
}
330
2A
100
AcDbVisualStyle
  2
Flat
 70
     0
 71
     2
 72
     1
 73
     1
 90
        2
 40
-0.6
 41
30.0
 62
     5
 63
     7
 74
     0
 91
        4
 64
     7
 65
   257
 75
     1
175
     1
 42
1.0
 92
        8
 66
     7
 43
1.0
 76
     1
 77
     6
 78
     2
 67
     7
 79
     5
170
     0
171
     0
290
     0
174
     0
 93
       13
 44
0.0
173
     0
291
     1
 45
0.0
1001
ACAD
1000
AcDbSavedByObjectVersion
1070
     0
  0
VISUALSTYLE
  5
2C
102
{ACAD_REACTORS
330
2A
102
}
102
{ACAD_XDICTIONARY
360
229
102
}
330
2A
100
AcDbVisualStyle
  2
FlatWithEdges
 70
     1
 71
     2
 72
     1
 73
     1
 90
        2
 40
-0.6
 41
30.0
 62
     5
 63
     7
 74
     1
 91
        4
 64
     7
 65
   257
 75
     1
175
     1
 42
1.0
 92
        0
 66
   257
 43
1.0
 76
     1
 77
     6
 78
     2
 67
     7
 79
     5
170
     0
171
     0
290
     0
174
     0
 93
       13
 44
0.0
173
     0
291
     1
 45
0.0
1001
ACAD
1000
AcDbSavedByObjectVersion
1070
     0
  0
VISUALSTYLE
  5
2D
102
{ACAD_REACTORS
330
2A
102
}
102
{ACAD_XDICTIONARY
360
22B
102
}
330
2A
100
AcDbVisualStyle
  2
Gouraud
 70
     2
 71
     2
 72
     2
 73
     1
 90
        2
 40
-0.6
 41
30.0
 62
     5
 63
     7
 74
     0
 91
        4
 64
     7
 65
   257
 75
     1
175
     1
 42
1.0
 92
        0
 66
     7
 43
1.0
 76
     1
 77
     6
 78
     2
 67
     7
 79
     5
170
     0
171
     0
290
     0
174
     0
 93
       13
 44
0.0
173
     0
291
     1
 45
0.0
1001
ACAD
1000
AcDbSavedByObjectVersion
1070
     0
  0
VISUALSTYLE
  5
2E
102
{ACAD_REACTORS
330
2A
102
}
102
{ACAD_XDICTIONARY
360
22D
102
}
330
2A
100
AcDbVisualStyle
  2
GouraudWithEdges
 70
     3
 71
     2
 72
     2
 73
     1
 90
        2
 40
-0.6
 41
30.0
 62
     5
 63
     7
 74
     1
 91
        4
 64
     7
 65
   257
 75
     1
175
     1
 42
1.0
 92
        0
 66
   257
 43
1.0
 76
     1
 77
     6
 78
     2
 67
     7
 79
     5
170
     0
171
     0
290
     0
174
     0
 93
       13
 44
0.0
173
     0
291
     1
 45
0.0
1001
ACAD
1000
AcDbSavedByObjectVersion
1070
     0
  0
VISUALSTYLE
  5
38
102
{ACAD_REACTORS
330
2A
102
}
102
{ACAD_XDICTIONARY
360
241
102
}
330
2A
100
AcDbVisualStyle
  2
Linepattern
 70
    14
 71
     2
 72
     2
 73
     0
 90
        0
 40
-0.6
 41
-30.0
 62
     5
 63
     7
 74
     1
 91
        4
 64
     7
 65
   257
 75
     7
175
     7
 42
1.0
 92
        8
 66
     7
 43
1.0
 76
     1
 77
     6
 78
     2
 67
     7
 79
     5
170
     0
171
     0
290
     0
174
     0
 93
        1
 44
0.0
173
     0
291
     1
 45
0.0
1001
ACAD
1000
AcDbSavedByObjectVersion
1070
     0
  0
VISUALSTYLE
  5
33
102
{ACAD_REACTORS
330
2A
102
}
102
{ACAD_XDICTIONARY
360
237
102
}
330
2A
100
AcDbVisualStyle
  2
Realistic
 70
     8
 71
     2
 72
     2
 73
     0
 90
        0
 40
-0.6
 41
-30.0
 62
     5
 63
     7
 74
     1
 91
        0
 64
     7
 65
   257
 75
     1
175
     1
 42
1.0
 92
        8
 66
     8
 43
1.0
 76
     1
 77
     6
 78
     2
 67
     7
 79
     5
170
     0
171
     0
290
     0
174
     0
 93
       13
 44
0.0
173
     0
291
     0
 45
0.0
1001
ACAD
1000
AcDbSavedByObjectVersion
1070
     0
  0
VISUALSTYLE
  5
37
102
{ACAD_REACTORS
330
2A
102
}
102
{ACAD_XDICTIONARY
360
23F
102
}
330
2A
100
AcDbVisualStyle
  2
Thicken
 70
    13
 71
     2
 72
     2
 73
     0
 90
        0
 40
-0.6
 41
-30.0
 62
     5
 63
     7
 74
     1
 91
        4
 64
     7
 65
   257
 75
     1
175
     1
 42
1.0
 92
       12
 66
     7
 43
1.0
 76
     1
 77
     6
 78
     2
 67
     7
 79
     5
170
     0
171
     0
290
     0
174
     0
 93
        1
 44
0.0
173
     0
291
     1
 45
0.0
1001
ACAD
1000
AcDbSavedByObjectVersion
1070
     0
  0
DICTIONARYVAR
  5
225
102
{ACAD_REACTORS
330
222
102
}
330
222
100
DictionaryVariables
280
     0
  1
2
  0
DICTIONARYVAR
  5
226
102
{ACAD_REACTORS
330
222
102
}
330
222
100
DictionaryVariables
280
     0
  1
1
  0
DICTIONARY
  5
249
330
3D
100
AcDbDictionary
280
     1
281
     1
  3
ACAD_XREC_ROUNDTRIP
360
24A
  0
DICTIONARY
  5
247
330
3C
100
AcDbDictionary
280
     1
281
     1
  3
ACAD_XREC_ROUNDTRIP
360
248
  0
DICTIONARY
  5
24B
330
3E
100
AcDbDictionary
280
     1
281
     1
  3
ACAD_XREC_ROUNDTRIP
360
24C
  0
DICTIONARY
  5
22F
330
2F
100
AcDbDictionary
280
     1
281
     1
  3
ACAD_XREC_ROUNDTRIP
360
230
  0
DICTIONARY
  5
233
330
31
100
AcDbDictionary
280
     1
281
     1
  3
ACAD_XREC_ROUNDTRIP
360
234
  0
DICTIONARY
  5
231
330
30
100
AcDbDictionary
280
     1
281
     1
  3
ACAD_XREC_ROUNDTRIP
360
232
  0
DICTIONARY
  5
235
330
32
100
AcDbDictionary
280
     1
281
     1
  3
ACAD_XREC_ROUNDTRIP
360
236
  0
DICTIONARY
  5
23D
330
36
100
AcDbDictionary
280
     1
281
     1
  3
ACAD_XREC_ROUNDTRIP
360
23E
  0
DICTIONARY
  5
245
330
3A
100
AcDbDictionary
280
     1
281
     1
  3
ACAD_XREC_ROUNDTRIP
360
246
  0
DICTIONARY
  5
239
330
34
100
AcDbDictionary
280
     1
281
     1
  3
ACAD_XREC_ROUNDTRIP
360
23A
  0
DICTIONARY
  5
23B
330
35
100
AcDbDictionary
280
     1
281
     1
  3
ACAD_XREC_ROUNDTRIP
360
23C
  0
DICTIONARY
  5
243
330
39
100
AcDbDictionary
280
     1
281
     1
  3
ACAD_XREC_ROUNDTRIP
360
244
  0
DICTIONARY
  5
227
330
2B
100
AcDbDictionary
280
     1
281
     1
  3
ACAD_XREC_ROUNDTRIP
360
228
  0
DICTIONARY
  5
229
330
2C
100
AcDbDictionary
280
     1
281
     1
  3
ACAD_XREC_ROUNDTRIP
360
22A
  0
DICTIONARY
  5
22B
330
2D
100
AcDbDictionary
280
     1
281
     1
  3
ACAD_XREC_ROUNDTRIP
360
22C
  0
DICTIONARY
  5
22D
330
2E
100
AcDbDictionary
280
     1
281
     1
  3
ACAD_XREC_ROUNDTRIP
360
22E
  0
DICTIONARY
  5
241
330
38
100
AcDbDictionary
280
     1
281
     1
  3
ACAD_XREC_ROUNDTRIP
360
242
  0
DICTIONARY
  5
237
330
33
100
AcDbDictionary
280
     1
281
     1
  3
ACAD_XREC_ROUNDTRIP
360
238
  0
DICTIONARY
  5
23F
330
37
100
AcDbDictionary
280
     1
281
     1
  3
ACAD_XREC_ROUNDTRIP
360
240
  0
XRECORD
  5
24A
102
{ACAD_REACTORS
330
249
102
}
330
249
100
AcDbXrecord
280
     1
102
MATERIAL
148
0.0
149
0.0
149
0.0
 93
        0
 94
      127
282
     0
 72
     1
 77
     1
171
     1
175
     1
179
     1
273
     0
  0
XRECORD
  5
248
102
{ACAD_REACTORS
330
247
102
}
330
247
100
AcDbXrecord
280
     1
102
MATERIAL
148
0.0
149
0.0
149
0.0
 93
        0
 94
      127
282
     0
 72
     1
 77
     1
171
     1
175
     1
179
     1
273
     0
  0
XRECORD
  5
24C
102
{ACAD_REACTORS
330
24B
102
}
330
24B
100
AcDbXrecord
280
     1
102
MATERIAL
148
0.0
149
0.0
149
0.0
 93
        0
 94
      127
282
     0
 72
     1
 77
     1
171
     1
175
     1
179
     1
273
     0
  0
XRECORD
  5
230
102
{ACAD_REACTORS
330
22F
102
}
330
22F
100
AcDbXrecord
280
     1
102
RTVSPropertyOp0
 70
     1
102
RTVSPropertyOp1
 70
     1
102
RTVSPropertyOp2
 70
     1
102
RTVSPropertyOp3
 70
     1
102
RTVSPropertyOp4
 70
     1
102
RTVSPropertyOp5
 70
     1
102
RTVSPropertyOp6
 70
     1
102
RTVSPropertyOp7
 70
     1
102
RTVSPropertyOp8
 70
     1
102
RTVSPropertyOp9
 70
     1
102
RTVSPropertyOp10
 70
     1
102
RTVSPropertyOp11
 70
     1
102
RTVSPropertyOp12
 70
     1
102
RTVSPropertyOp13
 70
     1
102
RTVSPropertyOp14
 70
     1
102
RTVSPropertyOp15
 70
     1
102
RTVSPropertyOp16
 70
     1
102
RTVSPropertyOp17
 70
     1
102
RTVSPropertyOp18
 70
     1
102
RTVSPropertyOp19
 70
     1
102
RTVSPropertyOp20
 70
     1
102
RTVSPropertyOp21
 70
     1
102
RTVSPropertyOp22
 70
     1
102
RTVSPropertyOp23
 70
     1
102
RTVSPropertyOp24
 70
     1
102
RTVSPropertyOp25
 70
     1
102
RTVSPropertyOp26
 70
     1
102
RTVSPropertyOp27
 70
     1
102
RTVSPropertyOp28
 70
     1
102
RTVSPropertyOp29
 70
     1
102
RTVSPropertyOp30
 70
     1
102
RTVSPropertyOp31
 70
     1
102
RTVSPropertyOp32
 70
     1
  0
XRECORD
  5
234
102
{ACAD_REACTORS
330
233
102
}
330
233
100
AcDbXrecord
280
     1
102
RTVSPropertyOp0
 70
     1
102
RTVSPropertyOp1
 70
     1
102
RTVSPropertyOp2
 70
     1
102
RTVSPropertyOp3
 70
     1
102
RTVSPropertyOp4
 70
     1
102
RTVSPropertyOp5
 70
     1
102
RTVSPropertyOp6
 70
     1
102
RTVSPropertyOp7
 70
     1
102
RTVSPropertyOp8
 70
     1
102
RTVSPropertyOp9
 70
     1
102
RTVSPropertyOp10
 70
     1
102
RTVSPropertyOp11
 70
     1
102
RTVSPropertyOp12
 70
     1
102
RTVSPropertyOp13
 70
     1
102
RTVSPropertyOp14
 70
     1
102
RTVSPropertyOp15
 70
     1
102
RTVSPropertyOp16
 70
     1
102
RTVSPropertyOp17
 70
     1
102
RTVSPropertyOp18
 70
     1
102
RTVSPropertyOp19
 70
     1
102
RTVSPropertyOp20
 70
     1
102
RTVSPropertyOp21
 70
     1
102
RTVSPropertyOp22
 70
     1
102
RTVSPropertyOp23
 70
     1
102
RTVSPropertyOp24
 70
     1
102
RTVSPropertyOp25
 70
     1
102
RTVSPropertyOp26
 70
     1
102
RTVSPropertyOp27
 70
     1
102
RTVSPropertyOp28
 70
     1
102
RTVSPropertyOp29
 70
     1
102
RTVSPropertyOp30
 70
     1
102
RTVSPropertyOp31
 70
     1
102
RTVSPropertyOp32
 70
     1
  0
XRECORD
  5
232
102
{ACAD_REACTORS
330
231
102
}
330
231
100
AcDbXrecord
280
     1
102
RTVSPropertyOp0
 70
     1
102
RTVSPropertyOp1
 70
     1
102
RTVSPropertyOp2
 70
     1
102
RTVSPropertyOp3
 70
     1
102
RTVSPropertyOp4
 70
     1
102
RTVSPropertyOp5
 70
     1
102
RTVSPropertyOp6
 70
     1
102
RTVSPropertyOp7
 70
     1
102
RTVSPropertyOp8
 70
     1
102
RTVSPropertyOp9
 70
     1
102
RTVSPropertyOp10
 70
     1
102
RTVSPropertyOp11
 70
     1
102
RTVSPropertyOp12
 70
     1
102
RTVSPropertyOp13
 70
     1
102
RTVSPropertyOp14
 70
     1
102
RTVSPropertyOp15
 70
     1
102
RTVSPropertyOp16
 70
     1
102
RTVSPropertyOp17
 70
     1
102
RTVSPropertyOp18
 70
     1
102
RTVSPropertyOp19
 70
     1
102
RTVSPropertyOp20
 70
     1
102
RTVSPropertyOp21
 70
     1
102
RTVSPropertyOp22
 70
     1
102
RTVSPropertyOp23
 70
     1
102
RTVSPropertyOp24
 70
     1
102
RTVSPropertyOp25
 70
     1
102
RTVSPropertyOp26
 70
     1
102
RTVSPropertyOp27
 70
     1
102
RTVSPropertyOp28
 70
     1
102
RTVSPropertyOp29
 70
     1
102
RTVSPropertyOp30
 70
     1
102
RTVSPropertyOp31
 70
     1
102
RTVSPropertyOp32
 70
     1
  0
XRECORD
  5
236
102
{ACAD_REACTORS
330
235
102
}
330
235
100
AcDbXrecord
280
     1
102
RTVSPropertyOp0
 70
     1
102
RTVSPropertyOp1
 70
     1
102
RTVSPropertyOp2
 70
     1
102
RTVSPropertyOp3
 70
     1
102
RTVSPropertyOp4
 70
     1
102
RTVSPropertyOp5
 70
     1
102
RTVSPropertyOp6
 70
     1
102
RTVSPropertyOp7
 70
     1
102
RTVSPropertyOp8
 70
     1
102
RTVSPropertyOp9
 70
     1
102
RTVSPropertyOp10
 70
     1
102
RTVSPropertyOp11
 70
     1
102
RTVSPropertyOp12
 70
     1
102
RTVSPropertyOp13
 70
     1
102
RTVSPropertyOp14
 70
     1
102
RTVSPropertyOp15
 70
     1
102
RTVSPropertyOp16
 70
     1
102
RTVSPropertyOp17
 70
     1
102
RTVSPropertyOp18
 70
     1
102
RTVSPropertyOp19
 70
     1
102
RTVSPropertyOp20
 70
     1
102
RTVSPropertyOp21
 70
     1
102
RTVSPropertyOp22
 70
     1
102
RTVSPropertyOp23
 70
     1
102
RTVSPropertyOp24
 70
     1
102
RTVSPropertyOp25
 70
     1
102
RTVSPropertyOp26
 70
     1
102
RTVSPropertyOp27
 70
     1
102
RTVSPropertyOp28
 70
     1
102
RTVSPropertyOp29
 70
     1
102
RTVSPropertyOp30
 70
     1
102
RTVSPropertyOp31
 70
     1
102
RTVSPropertyOp32
 70
     1
  0
XRECORD
  5
23E
102
{ACAD_REACTORS
330
23D
102
}
330
23D
100
AcDbXrecord
280
     1
102
RTVSPropertyOp0
 70
     1
102
RTVSPropertyOp1
 70
     1
102
RTVSPropertyOp2
 70
     1
102
RTVSPropertyOp3
 70
     1
102
RTVSPropertyOp4
 70
     1
102
RTVSPropertyOp5
 70
     1
102
RTVSPropertyOp6
 70
     1
102
RTVSPropertyOp7
 70
     1
102
RTVSPropertyOp8
 70
     1
102
RTVSPropertyOp9
 70
     1
102
RTVSPropertyOp10
 70
     1
102
RTVSPropertyOp11
 70
     1
102
RTVSPropertyOp12
 70
     1
102
RTVSPropertyOp13
 70
     1
102
RTVSPropertyOp14
 70
     1
102
RTVSPropertyOp15
 70
     1
102
RTVSPropertyOp16
 70
     1
102
RTVSPropertyOp17
 70
     1
102
RTVSPropertyOp18
 70
     1
102
RTVSPropertyOp19
 70
     1
102
RTVSPropertyOp20
 70
     1
102
RTVSPropertyOp21
 70
     1
102
RTVSPropertyOp22
 70
     1
102
RTVSPropertyOp23
 70
     1
102
RTVSPropertyOp24
 70
     1
102
RTVSPropertyOp25
 70
     1
102
RTVSPropertyOp26
 70
     1
102
RTVSPropertyOp27
 70
     1
102
RTVSPropertyOp28
 70
     1
102
RTVSPropertyOp29
 70
     1
102
RTVSPropertyOp30
 70
     1
102
RTVSPropertyOp31
 70
     1
102
RTVSPropertyOp32
 70
     1
  0
XRECORD
  5
246
102
{ACAD_REACTORS
330
245
102
}
330
245
100
AcDbXrecord
280
     1
102
RTVSPropertyOp0
 70
     1
102
RTVSPropertyOp1
 70
     1
102
RTVSPropertyOp2
 70
     1
102
RTVSPropertyOp3
 70
     1
102
RTVSPropertyOp4
 70
     1
102
RTVSPropertyOp5
 70
     1
102
RTVSPropertyOp6
 70
     1
102
RTVSPropertyOp7
 70
     1
102
RTVSPropertyOp8
 70
     1
102
RTVSPropertyOp9
 70
     1
102
RTVSPropertyOp10
 70
     1
102
RTVSPropertyOp11
 70
     1
102
RTVSPropertyOp12
 70
     1
102
RTVSPropertyOp13
 70
     1
102
RTVSPropertyOp14
 70
     1
102
RTVSPropertyOp15
 70
     1
102
RTVSPropertyOp16
 70
     1
102
RTVSPropertyOp17
 70
     1
102
RTVSPropertyOp18
 70
     1
102
RTVSPropertyOp19
 70
     1
102
RTVSPropertyOp20
 70
     1
102
RTVSPropertyOp21
 70
     1
102
RTVSPropertyOp22
 70
     1
102
RTVSPropertyOp23
 70
     1
102
RTVSPropertyOp24
 70
     1
102
RTVSPropertyOp25
 70
     1
102
RTVSPropertyOp26
 70
     1
102
RTVSPropertyOp27
 70
     1
102
RTVSPropertyOp28
 70
     1
102
RTVSPropertyOp29
 70
     1
102
RTVSPropertyOp30
 70
     1
102
RTVSPropertyOp31
 70
     1
102
RTVSPropertyOp32
 70
     1
  0
XRECORD
  5
23A
102
{ACAD_REACTORS
330
239
102
}
330
239
100
AcDbXrecord
280
     1
102
RTVSPropertyOp0
 70
     1
102
RTVSPropertyOp1
 70
     1
102
RTVSPropertyOp2
 70
     1
102
RTVSPropertyOp3
 70
     1
102
RTVSPropertyOp4
 70
     1
102
RTVSPropertyOp5
 70
     1
102
RTVSPropertyOp6
 70
     1
102
RTVSPropertyOp7
 70
     1
102
RTVSPropertyOp8
 70
     1
102
RTVSPropertyOp9
 70
     1
102
RTVSPropertyOp10
 70
     1
102
RTVSPropertyOp11
 70
     1
102
RTVSPropertyOp12
 70
     1
102
RTVSPropertyOp13
 70
     1
102
RTVSPropertyOp14
 70
     1
102
RTVSPropertyOp15
 70
     1
102
RTVSPropertyOp16
 70
     1
102
RTVSPropertyOp17
 70
     1
102
RTVSPropertyOp18
 70
     1
102
RTVSPropertyOp19
 70
     1
102
RTVSPropertyOp20
 70
     1
102
RTVSPropertyOp21
 70
     1
102
RTVSPropertyOp22
 70
     1
102
RTVSPropertyOp23
 70
     1
102
RTVSPropertyOp24
 70
     1
102
RTVSPropertyOp25
 70
     1
102
RTVSPropertyOp26
 70
     1
102
RTVSPropertyOp27
 70
     1
102
RTVSPropertyOp28
 70
     1
102
RTVSPropertyOp29
 70
     1
102
RTVSPropertyOp30
 70
     1
102
RTVSPropertyOp31
 70
     1
102
RTVSPropertyOp32
 70
     1
  0
XRECORD
  5
23C
102
{ACAD_REACTORS
330
23B
102
}
330
23B
100
AcDbXrecord
280
     1
102
RTVSPropertyOp0
 70
     1
102
RTVSPropertyOp1
 70
     1
102
RTVSPropertyOp2
 70
     1
102
RTVSPropertyOp3
 70
     1
102
RTVSPropertyOp4
 70
     1
102
RTVSPropertyOp5
 70
     1
102
RTVSPropertyOp6
 70
     1
102
RTVSPropertyOp7
 70
     1
102
RTVSPropertyOp8
 70
     1
102
RTVSPropertyOp9
 70
     1
102
RTVSPropertyOp10
 70
     1
102
RTVSPropertyOp11
 70
     1
102
RTVSPropertyOp12
 70
     1
102
RTVSPropertyOp13
 70
     1
102
RTVSPropertyOp14
 70
     1
102
RTVSPropertyOp15
 70
     1
102
RTVSPropertyOp16
 70
     1
102
RTVSPropertyOp17
 70
     1
102
RTVSPropertyOp18
 70
     1
102
RTVSPropertyOp19
 70
     1
102
RTVSPropertyOp20
 70
     1
102
RTVSPropertyOp21
 70
     1
102
RTVSPropertyOp22
 70
     1
102
RTVSPropertyOp23
 70
     1
102
RTVSPropertyOp24
 70
     1
102
RTVSPropertyOp25
 70
     1
102
RTVSPropertyOp26
 70
     1
102
RTVSPropertyOp27
 70
     1
102
RTVSPropertyOp28
 70
     1
102
RTVSPropertyOp29
 70
     1
102
RTVSPropertyOp30
 70
     1
102
RTVSPropertyOp31
 70
     1
102
RTVSPropertyOp32
 70
     1
  0
XRECORD
  5
244
102
{ACAD_REACTORS
330
243
102
}
330
243
100
AcDbXrecord
280
     1
102
RTVSPropertyOp0
 70
     1
102
RTVSPropertyOp1
 70
     1
102
RTVSPropertyOp2
 70
     1
102
RTVSPropertyOp3
 70
     1
102
RTVSPropertyOp4
 70
     1
102
RTVSPropertyOp5
 70
     1
102
RTVSPropertyOp6
 70
     1
102
RTVSPropertyOp7
 70
     1
102
RTVSPropertyOp8
 70
     1
102
RTVSPropertyOp9
 70
     1
102
RTVSPropertyOp10
 70
     1
102
RTVSPropertyOp11
 70
     1
102
RTVSPropertyOp12
 70
     1
102
RTVSPropertyOp13
 70
     1
102
RTVSPropertyOp14
 70
     1
102
RTVSPropertyOp15
 70
     1
102
RTVSPropertyOp16
 70
     1
102
RTVSPropertyOp17
 70
     1
102
RTVSPropertyOp18
 70
     1
102
RTVSPropertyOp19
 70
     1
102
RTVSPropertyOp20
 70
     1
102
RTVSPropertyOp21
 70
     1
102
RTVSPropertyOp22
 70
     1
102
RTVSPropertyOp23
 70
     1
102
RTVSPropertyOp24
 70
     1
102
RTVSPropertyOp25
 70
     1
102
RTVSPropertyOp26
 70
     1
102
RTVSPropertyOp27
 70
     1
102
RTVSPropertyOp28
 70
     1
102
RTVSPropertyOp29
 70
     1
102
RTVSPropertyOp30
 70
     1
102
RTVSPropertyOp31
 70
     1
102
RTVSPropertyOp32
 70
     1
  0
XRECORD
  5
228
102
{ACAD_REACTORS
330
227
102
}
330
227
100
AcDbXrecord
280
     1
102
RTVSPropertyOp0
 70
     1
102
RTVSPropertyOp1
 70
     1
102
RTVSPropertyOp2
 70
     1
102
RTVSPropertyOp3
 70
     1
102
RTVSPropertyOp4
 70
     1
102
RTVSPropertyOp5
 70
     1
102
RTVSPropertyOp6
 70
     1
102
RTVSPropertyOp7
 70
     1
102
RTVSPropertyOp8
 70
     1
102
RTVSPropertyOp9
 70
     1
102
RTVSPropertyOp10
 70
     1
102
RTVSPropertyOp11
 70
     1
102
RTVSPropertyOp12
 70
     1
102
RTVSPropertyOp13
 70
     1
102
RTVSPropertyOp14
 70
     1
102
RTVSPropertyOp15
 70
     1
102
RTVSPropertyOp16
 70
     1
102
RTVSPropertyOp17
 70
     1
102
RTVSPropertyOp18
 70
     1
102
RTVSPropertyOp19
 70
     1
102
RTVSPropertyOp20
 70
     1
102
RTVSPropertyOp21
 70
     1
102
RTVSPropertyOp22
 70
     1
102
RTVSPropertyOp23
 70
     1
102
RTVSPropertyOp24
 70
     1
102
RTVSPropertyOp25
 70
     1
102
RTVSPropertyOp26
 70
     1
102
RTVSPropertyOp27
 70
     1
102
RTVSPropertyOp28
 70
     1
102
RTVSPropertyOp29
 70
     1
102
RTVSPropertyOp30
 70
     1
102
RTVSPropertyOp31
 70
     1
102
RTVSPropertyOp32
 70
     1
  0
XRECORD
  5
22A
102
{ACAD_REACTORS
330
229
102
}
330
229
100
AcDbXrecord
280
     1
102
RTVSPropertyOp0
 70
     1
102
RTVSPropertyOp1
 70
     1
102
RTVSPropertyOp2
 70
     1
102
RTVSPropertyOp3
 70
     1
102
RTVSPropertyOp4
 70
     1
102
RTVSPropertyOp5
 70
     1
102
RTVSPropertyOp6
 70
     1
102
RTVSPropertyOp7
 70
     1
102
RTVSPropertyOp8
 70
     1
102
RTVSPropertyOp9
 70
     1
102
RTVSPropertyOp10
 70
     1
102
RTVSPropertyOp11
 70
     1
102
RTVSPropertyOp12
 70
     1
102
RTVSPropertyOp13
 70
     1
102
RTVSPropertyOp14
 70
     1
102
RTVSPropertyOp15
 70
     1
102
RTVSPropertyOp16
 70
     1
102
RTVSPropertyOp17
 70
     1
102
RTVSPropertyOp18
 70
     1
102
RTVSPropertyOp19
 70
     1
102
RTVSPropertyOp20
 70
     1
102
RTVSPropertyOp21
 70
     1
102
RTVSPropertyOp22
 70
     1
102
RTVSPropertyOp23
 70
     1
102
RTVSPropertyOp24
 70
     1
102
RTVSPropertyOp25
 70
     1
102
RTVSPropertyOp26
 70
     1
102
RTVSPropertyOp27
 70
     1
102
RTVSPropertyOp28
 70
     1
102
RTVSPropertyOp29
 70
     1
102
RTVSPropertyOp30
 70
     1
102
RTVSPropertyOp31
 70
     1
102
RTVSPropertyOp32
 70
     1
  0
XRECORD
  5
22C
102
{ACAD_REACTORS
330
22B
102
}
330
22B
100
AcDbXrecord
280
     1
102
RTVSPropertyOp0
 70
     1
102
RTVSPropertyOp1
 70
     1
102
RTVSPropertyOp2
 70
     1
102
RTVSPropertyOp3
 70
     1
102
RTVSPropertyOp4
 70
     1
102
RTVSPropertyOp5
 70
     1
102
RTVSPropertyOp6
 70
     1
102
RTVSPropertyOp7
 70
     1
102
RTVSPropertyOp8
 70
     1
102
RTVSPropertyOp9
 70
     1
102
RTVSPropertyOp10
 70
     1
102
RTVSPropertyOp11
 70
     1
102
RTVSPropertyOp12
 70
     1
102
RTVSPropertyOp13
 70
     1
102
RTVSPropertyOp14
 70
     1
102
RTVSPropertyOp15
 70
     1
102
RTVSPropertyOp16
 70
     1
102
RTVSPropertyOp17
 70
     1
102
RTVSPropertyOp18
 70
     1
102
RTVSPropertyOp19
 70
     1
102
RTVSPropertyOp20
 70
     1
102
RTVSPropertyOp21
 70
     1
102
RTVSPropertyOp22
 70
     1
102
RTVSPropertyOp23
 70
     1
102
RTVSPropertyOp24
 70
     1
102
RTVSPropertyOp25
 70
     1
102
RTVSPropertyOp26
 70
     1
102
RTVSPropertyOp27
 70
     1
102
RTVSPropertyOp28
 70
     1
102
RTVSPropertyOp29
 70
     1
102
RTVSPropertyOp30
 70
     1
102
RTVSPropertyOp31
 70
     1
102
RTVSPropertyOp32
 70
     1
  0
XRECORD
  5
22E
102
{ACAD_REACTORS
330
22D
102
}
330
22D
100
AcDbXrecord
280
     1
102
RTVSPropertyOp0
 70
     1
102
RTVSPropertyOp1
 70
     1
102
RTVSPropertyOp2
 70
     1
102
RTVSPropertyOp3
 70
     1
102
RTVSPropertyOp4
 70
     1
102
RTVSPropertyOp5
 70
     1
102
RTVSPropertyOp6
 70
     1
102
RTVSPropertyOp7
 70
     1
102
RTVSPropertyOp8
 70
     1
102
RTVSPropertyOp9
 70
     1
102
RTVSPropertyOp10
 70
     1
102
RTVSPropertyOp11
 70
     1
102
RTVSPropertyOp12
 70
     1
102
RTVSPropertyOp13
 70
     1
102
RTVSPropertyOp14
 70
     1
102
RTVSPropertyOp15
 70
     1
102
RTVSPropertyOp16
 70
     1
102
RTVSPropertyOp17
 70
     1
102
RTVSPropertyOp18
 70
     1
102
RTVSPropertyOp19
 70
     1
102
RTVSPropertyOp20
 70
     1
102
RTVSPropertyOp21
 70
     1
102
RTVSPropertyOp22
 70
     1
102
RTVSPropertyOp23
 70
     1
102
RTVSPropertyOp24
 70
     1
102
RTVSPropertyOp25
 70
     1
102
RTVSPropertyOp26
 70
     1
102
RTVSPropertyOp27
 70
     1
102
RTVSPropertyOp28
 70
     1
102
RTVSPropertyOp29
 70
     1
102
RTVSPropertyOp30
 70
     1
102
RTVSPropertyOp31
 70
     1
102
RTVSPropertyOp32
 70
     1
  0
XRECORD
  5
242
102
{ACAD_REACTORS
330
241
102
}
330
241
100
AcDbXrecord
280
     1
102
RTVSPropertyOp0
 70
     1
102
RTVSPropertyOp1
 70
     1
102
RTVSPropertyOp2
 70
     1
102
RTVSPropertyOp3
 70
     1
102
RTVSPropertyOp4
 70
     1
102
RTVSPropertyOp5
 70
     1
102
RTVSPropertyOp6
 70
     1
102
RTVSPropertyOp7
 70
     1
102
RTVSPropertyOp8
 70
     1
102
RTVSPropertyOp9
 70
     1
102
RTVSPropertyOp10
 70
     1
102
RTVSPropertyOp11
 70
     1
102
RTVSPropertyOp12
 70
     1
102
RTVSPropertyOp13
 70
     1
102
RTVSPropertyOp14
 70
     1
102
RTVSPropertyOp15
 70
     1
102
RTVSPropertyOp16
 70
     1
102
RTVSPropertyOp17
 70
     1
102
RTVSPropertyOp18
 70
     1
102
RTVSPropertyOp19
 70
     1
102
RTVSPropertyOp20
 70
     1
102
RTVSPropertyOp21
 70
     1
102
RTVSPropertyOp22
 70
     1
102
RTVSPropertyOp23
 70
     1
102
RTVSPropertyOp24
 70
     1
102
RTVSPropertyOp25
 70
     1
102
RTVSPropertyOp26
 70
     1
102
RTVSPropertyOp27
 70
     1
102
RTVSPropertyOp28
 70
     1
102
RTVSPropertyOp29
 70
     1
102
RTVSPropertyOp30
 70
     1
102
RTVSPropertyOp31
 70
     1
102
RTVSPropertyOp32
 70
     1
  0
XRECORD
  5
238
102
{ACAD_REACTORS
330
237
102
}
330
237
100
AcDbXrecord
280
     1
102
RTVSPropertyOp0
 70
     1
102
RTVSPropertyOp1
 70
     1
102
RTVSPropertyOp2
 70
     1
102
RTVSPropertyOp3
 70
     1
102
RTVSPropertyOp4
 70
     1
102
RTVSPropertyOp5
 70
     1
102
RTVSPropertyOp6
 70
     1
102
RTVSPropertyOp7
 70
     1
102
RTVSPropertyOp8
 70
     1
102
RTVSPropertyOp9
 70
     1
102
RTVSPropertyOp10
 70
     1
102
RTVSPropertyOp11
 70
     1
102
RTVSPropertyOp12
 70
     1
102
RTVSPropertyOp13
 70
     1
102
RTVSPropertyOp14
 70
     1
102
RTVSPropertyOp15
 70
     1
102
RTVSPropertyOp16
 70
     1
102
RTVSPropertyOp17
 70
     1
102
RTVSPropertyOp18
 70
     1
102
RTVSPropertyOp19
 70
     1
102
RTVSPropertyOp20
 70
     1
102
RTVSPropertyOp21
 70
     1
102
RTVSPropertyOp22
 70
     1
102
RTVSPropertyOp23
 70
     1
102
RTVSPropertyOp24
 70
     1
102
RTVSPropertyOp25
 70
     1
102
RTVSPropertyOp26
 70
     1
102
RTVSPropertyOp27
 70
     1
102
RTVSPropertyOp28
 70
     1
102
RTVSPropertyOp29
 70
     1
102
RTVSPropertyOp30
 70
     1
102
RTVSPropertyOp31
 70
     1
102
RTVSPropertyOp32
 70
     1
  0
XRECORD
  5
240
102
{ACAD_REACTORS
330
23F
102
}
330
23F
100
AcDbXrecord
280
     1
102
RTVSPropertyOp0
 70
     1
102
RTVSPropertyOp1
 70
     1
102
RTVSPropertyOp2
 70
     1
102
RTVSPropertyOp3
 70
     1
102
RTVSPropertyOp4
 70
     1
102
RTVSPropertyOp5
 70
     1
102
RTVSPropertyOp6
 70
     1
102
RTVSPropertyOp7
 70
     1
102
RTVSPropertyOp8
 70
     1
102
RTVSPropertyOp9
 70
     1
102
RTVSPropertyOp10
 70
     1
102
RTVSPropertyOp11
 70
     1
102
RTVSPropertyOp12
 70
     1
102
RTVSPropertyOp13
 70
     1
102
RTVSPropertyOp14
 70
     1
102
RTVSPropertyOp15
 70
     1
102
RTVSPropertyOp16
 70
     1
102
RTVSPropertyOp17
 70
     1
102
RTVSPropertyOp18
 70
     1
102
RTVSPropertyOp19
 70
     1
102
RTVSPropertyOp20
 70
     1
102
RTVSPropertyOp21
 70
     1
102
RTVSPropertyOp22
 70
     1
102
RTVSPropertyOp23
 70
     1
102
RTVSPropertyOp24
 70
     1
102
RTVSPropertyOp25
 70
     1
102
RTVSPropertyOp26
 70
     1
102
RTVSPropertyOp27
 70
     1
102
RTVSPropertyOp28
 70
     1
102
RTVSPropertyOp29
 70
     1
102
RTVSPropertyOp30
 70
     1
102
RTVSPropertyOp31
 70
     1
102
RTVSPropertyOp32
 70
     1
  0
ENDSEC
  0
EOF
